Loading...
Error

Скачать Универ. Новая общага (1-4 из 16) (Константин Смирнов) [2011, комедийный телесериал, WEBRip] торрент без регистрации

Статистика раздачи
Размер:  1,04 GB   |    Скачан:  564 раза

Полного источника не было: 25 минут

 
 
 
Автор Сообщение

МихаНЕзатор

[] 

Универ. Новая общага / Серия 1-4 из 16
Год выпуска: 2011
Производство: 7АРТ по заказу ТНТ-Телесеть
Жанр: Комедийный телесериал
Продолжительность: ~ 00:25:00
Режиссёр: Константин Смирнов

В ролях: Виталий Гогунский, Арарат Кещян, Станислав Ярушин, Анна Кузина, Настасья Самбурская, Анна Хилькевич

Описание: Оставленным на второй год пятикурсникам Антону и Кузе привалило счастье. Их старая общага идет под снос, и в новом корпусе их селят в блок с тремя девушками – Кристиной, Машей и Яной. В роли аспиранта в универ возвращается и Майкл – чтобы откосить от армии. Ребята стали старше и… романтичнее. Теперь им хочется не только секса и тусовок, но и настоящих чувств. Однако вызвать взаимность у дам сердца не так просто, как кажется.

Качество: WEBRip
Формат: AVI
Видео кодек: XviD
Аудио кодек: MP3
Видео: 720x400 (1.80:1), 25 fps, XviD Final 1.0.3 (build 37) ~1463 kbps avg, 0.20 bit/pixel
Аудио: 44.100 kHz, MPEG Layer 3, 2 ch, ~128.00 kbps avg
General
Complete name : D:\Univer. Novaya obshaga\Univer.Novaya.obshaga.(01).WEBRip.avi
Format : AVI
Format/Info : Audio Video Interleave
File size : 261 MiB
Duration : 22mn 49s
Overall bit rate : 1 601 Kbps
Writing library : VirtualDub build 29808/release
Video
ID : 0
Format : MPEG-4 Visual
Format profile : Simple@L3
Format settings, BVOP : 2
Format settings, QPel : No
Format settings, GMC : No warppoints
Format settings, Matrix : Default (MPEG)
Muxing mode : Packed bitstream
Codec ID : XVID
Codec ID/Hint : XviD
Duration : 22mn 49s
Bit rate : 1 463 Kbps
Width : 720 pixels
Height : 400 pixels
Display aspect ratio : 16:9
Frame rate : 25.000 fps
Color space : YUV
Chroma subsampling : 4:2:0
Bit depth : 8 bits
Scan type : Progressive
Compression mode : Lossy
Bits/(Pixel*Frame) : 0.203
Stream size : 239 MiB (91%)
Writing library : XviD 1.0.3 (UTC 2004-12-20)
Audio
ID : 1
Format : MPEG Audio
Format version : Version 1
Format profile : Layer 3
Mode : Joint stereo
Mode extension : MS Stereo
Codec ID : 55
Codec ID/Hint : MP3
Duration : 22mn 49s
Bit rate mode : Constant
Bit rate : 128 Kbps
Channel(s) : 2 channels
Sampling rate : 44.1 KHz
Compression mode : Lossy
Stream size : 20.9 MiB (8%)
Alignment : Split accross interleaves
Interleave, duration : 40 ms (1.00 video frame)
Interleave, preload duration : 500 ms
Writing library : LAME3.98.2ЄЄЄЄЄЄЄЄЄЄ
Майкл, Кузя и Антон заселяются в новую общагу к Маше, Яне и Кристине. Кузя влюбился в Машу при очень пикантных обстоятельствах. Майкл вспоминает, что было между ним и Яной в прошлом году. Антон предлагает переспать Кристине. Но у девушки свои счеты с мужчинами.
Антон извиняется перед Кристиной. Девушка уверена, что он что-то задумал. Майкл подсказывает Яне неожиданный способ сбора денег на профвзносы. Кузя пытается признаться Маше в любви и ведет себя странно. Маша уверена, что Кузя - гей.
Яна зовет Антона на субботник. Тот соглашается при условии, что девушка покажет ему грудь. Маша и Кузя моют стены. Кузя не может держать себя в руках при сексапильном виде Маши. Майкл и Кристина нашли пакетик с травой. Кристина подозревает Майкла в его пристрастии к травке. Майкл пытается ее переубедить, но попадает впросак.
Внимание! Раздача ведётся путём добавления новых серий. При каждом добавлении создаётся новый торрент. Чтобы начать докачку новой серии, пользователям необходимо сделать следующее:
1. остановить скачивание;
2. удалить старый торрент у себя из клиента (старые серии удалять не надо);
3. скачать новый торрент и запустить его у себя в клиенте вместо старого, при этом указать клиенту путь в старую папку куда и должно происходить скачивание новых серий.
Ваш клиент при этом должен произвести хеширование (проверку) старой папки (если не производит сам - помогите ему сделать это), и будет докачивать только те серии которых у вас ещё нет. Старые серии при этом не удаляются, а продолжают раздаваться!
Eсли вы уже удалили старые серии, то предотвратить повторную закачку старых серий можно, отжав галочку в соответствующих местах при запуске нового торрента.
1. Открыть в Torrent-клиенте скачанный торрент-файл
2. Снять галки с тех файлов торрента, которые мы не хотим закачивать. Оставляем только на нужных нам файлах (файле).
3. Нажать Оk.


11.10.2011 г., торент обновлён, добавлена 4-я серия!





Скачать Универ.Новая.общага.(1-4.из.16).(Константин.Смирнов).[2011.комедийный.телесериал.WEBRip].torrent без регистрации
Золото ЗОЛОТАЯ РАЗДАЧА! СКАЧАННОЕ НЕ ЗАСЧИТЫВАЕТСЯ! Золото
Дата: Зарегистрирован   [ Тип: внутренний ] Как тут cкачать?
MAGNET ссылка
MAGNET ссылка


Скачать .torrent

11 KB

Статус: проверено DHT
Скачан: торрент - 564 раз, раздача полностью - 198 раз
Размер: 1,04 GB
Оценка:  5 (Голосов: 1)
Поблагодарили: 6
Поделиться ссылкой на эту раздачу с друзьями:
В контактеFacebookОдноклассникиTwitterLivejournalМой МирLiveinternet
 

 

Liquid

[] 

МихаНЕзатор Так это ж повтор моей раздачи!!! http://goldenshara.com/viewtopic.php?p=112499#112499
 

МихаНЕзатор

[] 

Обрати внимание, раздача ведется путем добавления новых серий.
 

Штайн

[] 

Новые серии уже есть, обновлять будите?
 
Показать сообщения:    


Вы не можете начинать темы
Вы не можете отвечать на сообщения
Вы не можете редактировать свои сообщения
Вы не можете удалять свои сообщения
Вы не можете голосовать в опросах
Вы не можете прикреплять файлы к сообщениям
Вы можете скачивать файлы