Loading...
Error

Скачать СОБР (01-16 из 16) (Станислав Мареев) [2010, боевик, DVDRip] торрент без регистрации

Статистика раздачи
Размер:  8,75 GB   |    Скачан:  186 раз
Сидов:  1  [  0 KB/s  ]  
 
 
 
Автор Сообщение

МихаНЕзатор

[] 

Год выпуска: 2010
Страна: Россия
Студия: НТВ-Кино
Жанр: боевик
Продолжительность: серия ~ 50 мин.

Перевод: не требуется
Субтитры: нет
Оригинальная аудиодорожка: русский

Режиссер: Станислав Мареев

В ролях:
Алексей Комашко, Владислав Демин, Андрей Лавров, Сергей Векслер, Карина Андоленко, Анна Капалева, Александр Никольский (II), Ангелина Коршунова, Евгений Кулаков, Наталья Голованова, Сергей Загребнев, Валерий Кудашкин, Рубен Симонов (II), Иннокентий Тарабара, Валерий Новиков, Елизавета Лотова...

Описание: Весной 1993 года бывший офицер-десантник Александр Якушев, после сокращения из вооруженных сил приезжает в Ставрополь. После ряда безуспешных попыток устроиться на работу в коммерческие структуры, он наталкивается на старого друга который приглашает его вступить в ряды сотрудников специального отряда быстрого реагирования (СОБР). Костяк составляют бывшие офицеры вооруженных сил.
События фильма происходят на фоне ежедневной работы СОБРа тренировки, обучение, оперативные выезды на операции по освобождению заложников, задержанию различного статуса преступников и т. п. Разворачивается картина непростых взаимоотношений в среде бывших сотрудников правоохранительных органов и офицеров армейских спецподразделений.
Параллельно, в соседней Чечне, в создавшемся на то время криминальном анклаве, не подчиняющемся Москве, разворачивается история с торговлей оружием. В аферу вовлечены могущественные силы из банковского сектора страны, ряд будущих олигархов и криминальная верхушка Ичкерии.
Во время одной из командировок, отделение СОБРа выполняет задачу по охране и обеспечению деятельности следственной группы из Москвы, которая ведет расследование. И на одной из операций главным героям фильма удается перехватить оружие которое пытались продать чеченским боевикам. С этого момента герои вступают в череду не самых приятных приключений и препетий.
Но отношения, возникшие внутри боевой группы, уже не были чисто служебными. Офицеры-спецназовцы стали частью одной боевой машины, одного рыцарского ордена, имя которому СОБР...

Исходник: 2хDVD9 R5
Тип релиза: DVDRip
Контейнер: AVI

Видео: 720x400 (16:9), 25 fps, XviD ~ 1468 kbps avg, 0.204 bit/pixel
Аудио: 48 kHz, Dolby AC3 2.0, 192 kbps


Общее
Полное имя : SOBR.2010.DVDRip_[Youtracker]_by_AVP Studio.avi
Формат : AVI
Формат/Информация : Audio Video Interleave
Размер файла : 582 Мбайт
Продолжительность : 48 м.
Общий поток : 1669 Кбит/сек
Программа кодирования : VirtualDubModRus 1.5.10.2 (build 2542/release)
Библиотека кодирования : VirtualDubMod build 2542/release

Видео
Идентификатор : 0
Формат : MPEG-4 Visual
Профиль формата : Advanced Simple@L5
Параметр BVOP формата : 1
Параметр QPel формата : Нет
Параметр GMC формата : Без точки перехода
Параметр матрицы формата : Выборочная
Идентификатор кодека : XVID
Идентификатор кодека/Подсказка : XviD
Продолжительность : 48 м.
Битрейт : 1468 Кбит/сек
Ширина : 720 пикселей
Высота : 400 пикселей
Соотношение сторон : 16:9
Частота кадров : 25,000 кадров/сек
Цветовое пространство : YUV
Субдискретизация насыщенности : 4:2:0
Битовая глубина : 8 бит
Тип развёртки : Прогрессивная
Метод сжатия : С потерями
Бит/(Пиксели*Кадры) : 0.204
Размер потока : 512 Мбайт (88%)
Библиотека кодирования : XviD 65

Аудио
Идентификатор : 1
Формат : AC-3
Формат/Информация : Audio Coding 3
Расширение режима : CM (complete main)
Идентификатор кодека : 2000
Продолжительность : 48 м.
Вид битрейта : Постоянный
Битрейт : 192 Кбит/сек
Каналы : 2 канала
Расположение каналов : Front: L R
Частота : 48,0 КГц
Битовая глубина : 16 бит
Метод сжатия : С потерями
Размер потока : 66,9 Мбайт (12%)
Выравнивание : Разделение по промежуткам
Продолжительность промежутка : 40 мс. (1,00 видеокадр)
Время предзагрузки промежутка : 500 мс



Скачать СОБР.(01-16.из.16).(Станислав.Мареев).[2010.боевик.DVDRip].torrent без регистрации
Золото ЗОЛОТАЯ РАЗДАЧА! СКАЧАННОЕ НЕ ЗАСЧИТЫВАЕТСЯ! Золото
Дата: Зарегистрирован   [ Тип: внутренний ] Как тут cкачать?
MAGNET ссылка
MAGNET ссылка


Скачать .torrent

23 KB

Статус: проверено DHT
Скачан: торрент - 186 раз, раздача полностью - 125 раз
Размер: 8,75 GB
Оценка:  5 (Голосов: 1)
Поблагодарили: 4
Поделиться ссылкой на эту раздачу с друзьями:
В контактеFacebookОдноклассникиTwitterLivejournalМой МирLiveinternet
 

 
Показать сообщения:    


Вы не можете начинать темы
Вы не можете отвечать на сообщения
Вы не можете редактировать свои сообщения
Вы не можете удалять свои сообщения
Вы не можете голосовать в опросах
Вы не можете прикреплять файлы к сообщениям
Вы можете скачивать файлы