Loading...
Error

Скачать Вчера закончилась война (Серии: 1 - 16 из 16) (Владимир Балкашинов) [2011, Мелодрама, DVB] торрент без регистрации

Статистика раздачи
Размер:  27,39 GB   |    Скачан:  773 раза
Сидов:  1  [  0 KB/s  ]  
 
 
 
Автор Сообщение

Moln!a

[] 

Вчера закончилась война

Год выпуска: 2011
Производство: компания "Про-ТВ"
Жанр: Мелодрама
Продолжительность: ~ 00:45:00 серия
Субтитры: Отсутствуют

Режиссёр: Владимир Балкашинов

В ролях: Богдан Ступка, Любовь Руденко, Елена Дудина, Анатолий Руденко, Николай Иванов (III), Гарик Быстряков, Сергей Деревянко, Валентин Касьян, Юлия Майборода, Миша Хоменко, Алексей Шевченков

Описание: Весна 1945 года. До Победы остаются считанные, дни, но об этом пока никому не известно. Люди продолжают жить в напряжении, все так же с замиранием сердца слушают голос Левитана и оплакивают тех, на кого все еще приходят похоронки. И все-таки это весна. А значит снова нужно выходить в поле, пахать и сеять, ведь жизнь-то продолжается. В деревне Марьино все тоже идет своим чередом и если бы не появление Катерины, юной, амбициозной коммунистки, которая по заданию партии возглавии колхоз, возможно и не было бы этой истории...

Релиз:

СЭМПЛ

Качество: DVB
Формат: MPEG
Видео кодек: MPEG2
Аудио кодек: MPEG1 Layer 2
Видео: MPEG2 Video 720x576 (4:3) 25.00fps 5 359 Kbps, 0.517 bit/pixel
Аудио: MPEG Audio 48000Hz stereo 256 Кбит/сек
Complete name : F:\TORENTRAZDACHI\Вчера закончилась война DVB by CLIPMAN\Вчера закончилась война.01_DVB by CLIPMAN.mpg
Format : MPEG-PS
File size : 1.72 GiB
Duration : 43mn 1s
Overall bit rate : 5 729 Kbps

Video
ID : 224 (0xE0)
Format : MPEG Video
Format version : Version 2
Format profile : Main@Main
Format settings, BVOP : Yes
Format settings, Matrix : Default
Duration : 43mn 1s
Bit rate mode : Variable
Bit rate : 5 359 Kbps
Nominal bit rate : 10 000 Kbps
Width : 720 pixels
Height : 576 pixels
Display aspect ratio : 4:3
Frame rate : 25.000 fps
Standard : PAL
Color space : YUV
Chroma subsampling : 4:2:0
Bit depth : 8 bits
Scan type : Interlaced
Scan order : Top Field First
Bits/(Pixel*Frame) : 0.517
Stream size : 1.61 GiB (94%)

Audio
ID : 192 (0xC0)
Format : MPEG Audio
Format version : Version 1
Format profile : Layer 2
Duration : 43mn 1s
Bit rate mode : Constant
Bit rate : 256 Kbps
Channel(s) : 2 channels
Sampling rate : 48.0 KHz
Stream size : 78.8 MiB (4%)
Внимание! Раздача ведётся путём добавления новых серий; при каждом добавлении создётся новый торрент. Чтобы начать докачку новой серии, пользователям необходимо сделать следующее:
(1) остановить скачивание,
(2) удалить старый торрент у себя из клиента (старые серии удалять не надо),
(3) скачать новый торрент и запустить его у себя в клиенте вместо старого, при этом указать клиенту путь в старую папку куда и должно происходить скачивание новых серий.
Ваш клиент при этом должен произвести хеширование (проверку) старой папки (если не производит сам - помогите ему сделать это), и будет докачивать только те серии которых у вас ещё нет. Старые серии при этом не удаляются, а продолжают раздаваться!
Eсли вы уже удалили старые серии, то предотвратить повторную закачку старых серий можно, отжав галочку в соответсвующих местах при запуске нового торрента. По возможности, желательно не удалять старые серии как можно дольше чтобы релизёр не столько продолжал раздавать старые серии, а смог сконцентрироваться на новых.



Скачать Вчера.закончилась.война.(Серии.1.-.16.из.16).(Владимир.Балкашинов).[2011.Мелодрама.DVB].torrent без регистрации
Золото ЗОЛОТАЯ РАЗДАЧА! СКАЧАННОЕ НЕ ЗАСЧИТЫВАЕТСЯ! Золото
Дата: Зарегистрирован   [ Тип: внутренний ] Как тут cкачать?
MAGNET ссылка
MAGNET ссылка


Скачать .torrent

140 KB

Статус: проверено DHT
Скачан: торрент - 773 раз, раздача полностью - 355 раз
Размер: 27,39 GB
Оценка:  5 (Голосов: 2)
Поблагодарили: 2
Поделиться ссылкой на эту раздачу с друзьями:
В контактеFacebookОдноклассникиTwitterLivejournalМой МирLiveinternet
 

 
Показать сообщения:    


Вы не можете начинать темы
Вы не можете отвечать на сообщения
Вы не можете редактировать свои сообщения
Вы не можете удалять свои сообщения
Вы не можете голосовать в опросах
Вы не можете прикреплять файлы к сообщениям
Вы можете скачивать файлы