Loading...
Error

Скачать Защита свидетелей (01-12 из 12) (Влад Фурман, Алексей Лебедев) [2011, детектив, DVDRip] торрент без регистрации

Статистика раздачи
Размер:  4,38 GB   |    Скачан:  293 раза
Сидов:  1  [  0 KB/s  ]  
 
 
 
Автор Сообщение

МихаНЕзатор

[] 

Год выпуска: 2011
Страна: Россия
Студия: Фаворит фильм
Жанр: детектив
Продолжительность: серия ~ 50 мин.
Перевод: не требуется
Субтитры: нет
Оригинальная аудиодорожка: русский
Режиссер: Влад Фурман, Алексей Лебедев

В ролях: Светлана Кожемякина, Сергей Пускепалис, Дмитрий Щербина, Наталья Круглова, Андрей Смоляков, Сергей Русскин, Амаду Мамадаков, Максим Лагашкин, Дмитрий Поднозов, Аркадий Коваль, Анна Пескова, Владимир Кузнецов (VIII), Татьяна Колганова, Владимир Стеклов, Кирилл Полухин, Роман Агеев, Константин Воробьев, Мария Куликова, Денис Портнов, Михаил Сидаш, Георгий Корольчук, Владислав Резник, Галина Сабурова, Владислава Назарова, Сергей Кошонин, Николай Дик, Юлия Рудина, Семен Фурман, Всеволод Цурило, Валерий Гришко, Петр Семак, Эвелина Блёданс, Николай Иванов, Алена Старостина, Игорь Гузун, Алексей Девотченко...

Описание: В очень непростой для себя период жизни оперуполномоченный «карманного» отдела Иоланта Прилепина переводится в подразделение по обеспечению безопасности лиц, подлежащих государственной защите. Её представления о новой службе как о «казённо-скучной» меняются в первый же день, когда по неосмотрительности новых коллег происходит убийство ключевого свидетеля по делу лидера преступной группировки Литвина. Пенсионерка, студент, секретарша, судья, бомж палитра людей, попадающих под опеку оперативной группы, получившей в милицейской среде негласное название «гоблины», пестра и разнообразна. И объединяет их только одно каждому из них угрожает реальная опасность. Чтобы со всем этим справиться, дюжине «гоблинов» приходится работать и день и ночь. А тут ещё у заместителя начальника по оперативной работе Андрея Мешечко появились небеспочвенные подозрения в том, что в его подразделении завелся «крот»...



Исходник: 2хDVD5 R5
Тип релиза: DVDRip
Контейнер: AVI

Видео: 672x352 (1,91:1), 25 fps, XviD ~ 898 kbps avg, 0.152 bit/pixel
Аудио: 48 kHz, Dolby AC3 2.0, 128 kbps

Общее
Полное имя : Zashhita.svideteley.2011.DVDRip_[Youtracker]_by_AVP Studio.avi
Формат : AVI
Формат/Информация : Audio Video Interleave
Размер файла : 370 Мбайт
Продолжительность : 49 м.
Общий поток : 1036 Кбит/сек
Программа кодирования : VirtualDubModRus 1.5.10.2 (build 2542/release)
Библиотека кодирования : VirtualDubMod build 2542/release

Видео
Идентификатор : 0
Формат : MPEG-4 Visual
Профиль формата : Advanced Simple@L5
Параметр BVOP формата : 1
Параметр QPel формата : Нет
Параметр GMC формата : Без точки перехода
Параметр матрицы формата : Выборочная
Идентификатор кодека : XVID
Идентификатор кодека/Подсказка : XviD
Продолжительность : 49 м.
Битрейт : 898 Кбит/сек
Ширина : 672 пикселя
Высота : 352 пикселя
Соотношение сторон : 1,909
Частота кадров : 25,000 кадров/сек
Цветовое пространство : YUV
Субдискретизация насыщенности : 4:2:0
Битовая глубина : 8 бит
Тип развёртки : Прогрессивная
Метод сжатия : С потерями
Бит/(Пиксели*Кадры) : 0.152
Размер потока : 321 Мбайт (87%)
Библиотека кодирования : XviD 65

Аудио
Идентификатор : 1
Формат : AC-3
Формат/Информация : Audio Coding 3
Расширение режима : CM (complete main)
Идентификатор кодека : 2000
Продолжительность : 49 м.
Вид битрейта : Постоянный
Битрейт : 128 Кбит/сек
Каналы : 2 канала
Расположение каналов : Front: L R
Частота : 48,0 КГц
Битовая глубина : 16 бит
Метод сжатия : С потерями
Размер потока : 45,7 Мбайт (12%)
Выравнивание : Разделение по промежуткам
Продолжительность промежутка : 40 мс. (1,00 видеокадр)
Время предзагрузки промежутка : 500 мс



Скачать Защита.свидетелей.(01-12.из.12).(Влад.Фурман.Алексей.Лебедев).[2011.детектив.DVDRip].torrent без регистрации
Золото ЗОЛОТАЯ РАЗДАЧА! СКАЧАННОЕ НЕ ЗАСЧИТЫВАЕТСЯ! Золото
Дата: Зарегистрирован   [ Тип: внутренний ] Как тут cкачать?
MAGNET ссылка
MAGNET ссылка


Скачать .torrent

12 KB

Статус: проверено DHT
Скачан: торрент - 293 раз, раздача полностью - 65 раз
Размер: 4,38 GB
Оценка:  - (Голосов: 0)
Поблагодарили: 3
Поделиться ссылкой на эту раздачу с друзьями:
В контактеFacebookОдноклассникиTwitterLivejournalМой МирLiveinternet
 

 

[] 

Топик был перенесен из форума Зарубежные сериалы в форум Сериалы производства СНГ

Shara
 
Показать сообщения:    


Вы не можете начинать темы
Вы не можете отвечать на сообщения
Вы не можете редактировать свои сообщения
Вы не можете удалять свои сообщения
Вы не можете голосовать в опросах
Вы не можете прикреплять файлы к сообщениям
Вы можете скачивать файлы