Loading...
Error

Скачать Гетеры майора Соколова (01-08 из 08) (Бахтиер Худойназаров) [2014, военный, драма, HDTV] [1080i] торрент без регистрации

Статистика раздачи
Размер:  20,04 GB   |    Скачан:  200 раз
Сидов:  1  [  0 KB/s  ]  
 
 
 
Автор Сообщение

МихаНЕзатор

[] 

Информация о фильме
Название: Гетеры майора Соколова
Год выхода: 2014
Жанр: военный, драма
Режиссер: Бахтияр Худойназаров

В ролях: Андрей Панин, Сергей Гармаш, Артур Смольянинов, Филипп Янковский, Татьяна Лютаева, Дарья Мельникова, Аглая Тарасова, Мария Антонова (II), Анастасия Микульчина, Алиса Горшкова, Оксана Базилевич, Юлиана Ромашина (Оррен), Анатолий Гущин, Олег Флеер, Сергей Тэсслер (VII), Дмитрий Поднозов, Олег Тилькин

О фильме: Сентябрь 1939 года. Начало Второй Мировой войны. В Крым приезжает майор советской разведки Соколов. Его главная цель выявить агентурную сеть террористической антисоветской организации РОВС. Руководит контрразведкой Русского общевоинского союза - штабс-капитан Семенов, псевдоним Крест. Крест и Соколов давние враги. Белые офицеры, в 1917 году они оказались по разные стороны баррикад. Они прекрасно знают друг друга в лицо, хотели бы и не один раз могли бы убить друг друга, но каждому из них нужна гибель системы, которую представляет противник. Оба азартные игроки - они начинают сложную партию, в которой шансы на победу почти равны. Каждый из них готов жертвовать любыми фигурами, включая себя, ведь на кону - Родина. Одна. Но для каждого своя

Релиз от:

Выпущено: Россия, "Марс Медиа"
Продолжительность: 8 x ~ 00:48:00
Перевод: Не требуется

Качество: HDTV (1080i)
Видео: AVC, ~ 7169 Кбит/с, 1920x1080
Аудио: MP2, 2 ch, 192 Кбит/с

АНОНСЫ ПОПУЛЯРНЫХ РАЗДАЧ
Общее
Идентификатор : 1 (0x1)
Полное имя : D:VytasVideoGetery.majora.Sokolova.2014.HDTV.1080.Files-xGetery.majora.Sokolova.02.2014.HDTV.1080.Files-x.ts
Формат : MPEG-TS
Размер файла : 2,54 Гбайт
Продолжительность : 47 м.
Режим общего битрейта : Переменный
Общий поток : 7745 Кбит/сек

Видео
Идентификатор : 68 (0x44)
Идентификатор меню : 1 (0x1)
Формат : AVC
Формат/Информация : Advanced Video Codec
Профиль формата : High@L4.0
Параметр CABAC формата : Да
Параметр ReFrames формата : 3 кадра
Идентификатор кодека : 27
Продолжительность : 47 м.
Битрейт : 7169 Кбит/сек
Ширина : 1920 пикселей
Высота : 1080 пикселей
Соотношение сторон : 16:9
Частота кадров : 25,000 кадров/сек
Стандарт вещания : Component
Цветовое пространство : YUV
Субдискретизация насыщенности : 4:2:0
Битовая глубина : 8 бит
Тип развёртки : Чересстрочная
Порядок развёртки : Верхнее поле первое
Бит/(Пиксели*Кадры) : 0.138
Размер потока : 2,35 Гбайт (93%)
Основные цвета : BT.709
Характеристики трансфера : BT.709
Коэффициенты матрицы : BT.709

Аудио
Идентификатор : 69 (0x45)
Идентификатор меню : 1 (0x1)
Формат : MPEG Audio
Версия формата : Version 1
Профиль формата : Layer 2
Идентификатор кодека : 3
Продолжительность : 47 м.
Вид битрейта : Постоянный
Битрейт : 192 Кбит/сек
Каналы : 2 канала
Частота : 48,0 КГц
Метод сжатия : С потерями
Размер потока : 64,6 Мбайт (2%)
Язык : Russian

Общее
Идентификатор : 1 (0x1)
Полное имя : D:VytasVideoGetery.majora.Sokolova.2014.HDTV.1080.Files-xGetery.majora.Sokolova.03.2014.HDTV.1080.Files-x.ts
Формат : MPEG-TS
Размер файла : 2,55 Гбайт
Продолжительность : 47 м.
Режим общего битрейта : Переменный
Общий поток : 7725 Кбит/сек

Видео
Идентификатор : 68 (0x44)
Идентификатор меню : 1 (0x1)
Формат : AVC
Формат/Информация : Advanced Video Codec
Профиль формата : High@L4.0
Параметр CABAC формата : Да
Параметр ReFrames формата : 3 кадра
Параметр GOP формата : M=4, N=28
Идентификатор кодека : 27
Продолжительность : 47 м.
Битрейт : 7150 Кбит/сек
Ширина : 1920 пикселей
Высота : 1080 пикселей
Соотношение сторон : 16:9
Частота кадров : 25,000 кадров/сек
Стандарт вещания : Component
Цветовое пространство : YUV
Субдискретизация насыщенности : 4:2:0
Битовая глубина : 8 бит
Тип развёртки : Чересстрочная
Порядок развёртки : Верхнее поле первое
Бит/(Пиксели*Кадры) : 0.138
Размер потока : 2,36 Гбайт (93%)
Основные цвета : BT.709
Характеристики трансфера : BT.709
Коэффициенты матрицы : BT.709

Аудио
Идентификатор : 69 (0x45)
Идентификатор меню : 1 (0x1)
Формат : MPEG Audio
Версия формата : Version 1
Профиль формата : Layer 2
Идентификатор кодека : 3
Продолжительность : 47 м.
Вид битрейта : Постоянный
Битрейт : 192 Кбит/сек
Каналы : 2 канала
Частота : 48,0 КГц
Метод сжатия : С потерями
Размер потока : 64,8 Мбайт (2%)
Язык : Russian

Общее
Идентификатор : 1 (0x1)
Полное имя : D:VytasVideoGetery.majora.Sokolova.2014.HDTV.1080.Files-xGetery.majora.Sokolova.04.2014.HDTV.1080.Files-x.ts
Формат : MPEG-TS
Размер файла : 2,44 Гбайт
Продолжительность : 45 м.
Режим общего битрейта : Переменный
Общий поток : 7662 Кбит/сек

Видео
Идентификатор : 68 (0x44)
Идентификатор меню : 1 (0x1)
Формат : AVC
Формат/Информация : Advanced Video Codec
Профиль формата : High@L4.0
Параметр CABAC формата : Да
Параметр ReFrames формата : 3 кадра
Параметр GOP формата : M=4, N=28
Идентификатор кодека : 27
Продолжительность : 45 м.
Битрейт : 7089 Кбит/сек
Ширина : 1920 пикселей
Высота : 1080 пикселей
Соотношение сторон : 16:9
Частота кадров : 25,000 кадров/сек
Стандарт вещания : Component
Цветовое пространство : YUV
Субдискретизация насыщенности : 4:2:0
Битовая глубина : 8 бит
Тип развёртки : Чересстрочная
Порядок развёртки : Верхнее поле первое
Бит/(Пиксели*Кадры) : 0.137
Размер потока : 2,26 Гбайт (93%)
Основные цвета : BT.709
Характеристики трансфера : BT.709
Коэффициенты матрицы : BT.709

Аудио
Идентификатор : 69 (0x45)
Идентификатор меню : 1 (0x1)
Формат : MPEG Audio
Версия формата : Version 1
Профиль формата : Layer 2
Идентификатор кодека : 3
Продолжительность : 45 м.
Вид битрейта : Постоянный
Битрейт : 192 Кбит/сек
Каналы : 2 канала
Частота : 48,0 КГц
Метод сжатия : С потерями
Размер потока : 62,6 Мбайт (3%)
Язык : Russian

Общее
Идентификатор : 1 (0x1)
Полное имя : D:VytasVideoGetery.majora.Sokolova.2014.HDTV.1080.Files-xGetery.majora.Sokolova.05.2014.HDTV.1080.Files-x.ts
Формат : MPEG-TS
Размер файла : 2,65 Гбайт
Продолжительность : 48 м.
Режим общего битрейта : Переменный
Общий поток : 7768 Кбит/сек

Видео
Идентификатор : 68 (0x44)
Идентификатор меню : 1 (0x1)
Формат : AVC
Формат/Информация : Advanced Video Codec
Профиль формата : High@L4.0
Параметр CABAC формата : Да
Параметр ReFrames формата : 3 кадра
Параметр GOP формата : M=4, N=28
Идентификатор кодека : 27
Продолжительность : 48 м.
Битрейт : 7191 Кбит/сек
Ширина : 1920 пикселей
Высота : 1080 пикселей
Соотношение сторон : 16:9
Частота кадров : 25,000 кадров/сек
Стандарт вещания : Component
Цветовое пространство : YUV
Субдискретизация насыщенности : 4:2:0
Битовая глубина : 8 бит
Тип развёртки : Чересстрочная
Порядок развёртки : Верхнее поле первое
Бит/(Пиксели*Кадры) : 0.139
Размер потока : 2,45 Гбайт (93%)
Основные цвета : BT.709
Характеристики трансфера : BT.709
Коэффициенты матрицы : BT.709

Аудио
Идентификатор : 69 (0x45)
Идентификатор меню : 1 (0x1)
Формат : MPEG Audio
Версия формата : Version 1
Профиль формата : Layer 2
Идентификатор кодека : 3
Продолжительность : 48 м.
Вид битрейта : Постоянный
Битрейт : 192 Кбит/сек
Каналы : 2 канала
Частота : 48,0 КГц
Метод сжатия : С потерями
Размер потока : 67,0 Мбайт (2%)
Язык : Russian

Общее
Идентификатор : 1 (0x1)
Полное имя : D:VytasVideoGetery.majora.Sokolova.2014.HDTV.1080.Files-xGetery.majora.Sokolova.06.2014.HDTV.1080.Files-x.ts
Формат : MPEG-TS
Размер файла : 2,48 Гбайт
Продолжительность : 46 м.
Режим общего битрейта : Переменный
Общий поток : 7658 Кбит/сек

Видео
Идентификатор : 68 (0x44)
Идентификатор меню : 1 (0x1)
Формат : AVC
Формат/Информация : Advanced Video Codec
Профиль формата : High@L4.0
Параметр CABAC формата : Да
Параметр ReFrames формата : 3 кадра
Идентификатор кодека : 27
Продолжительность : 46 м.
Битрейт : 7086 Кбит/сек
Ширина : 1920 пикселей
Высота : 1080 пикселей
Соотношение сторон : 16:9
Частота кадров : 25,000 кадров/сек
Стандарт вещания : Component
Цветовое пространство : YUV
Субдискретизация насыщенности : 4:2:0
Битовая глубина : 8 бит
Тип развёртки : Чересстрочная
Порядок развёртки : Верхнее поле первое
Бит/(Пиксели*Кадры) : 0.137
Размер потока : 2,29 Гбайт (93%)
Основные цвета : BT.709
Характеристики трансфера : BT.709
Коэффициенты матрицы : BT.709

Аудио
Идентификатор : 69 (0x45)
Идентификатор меню : 1 (0x1)
Формат : MPEG Audio
Версия формата : Version 1
Профиль формата : Layer 2
Идентификатор кодека : 3
Продолжительность : 46 м.
Вид битрейта : Постоянный
Битрейт : 192 Кбит/сек
Каналы : 2 канала
Частота : 48,0 КГц
Метод сжатия : С потерями
Размер потока : 63,7 Мбайт (3%)
Язык : Russian

Общее
Идентификатор : 1 (0x1)
Полное имя : D:VytasVideoGetery.majora.Sokolova.2014.HDTV.1080.Files-xGetery.majora.Sokolova.07.2014.HDTV.1080.Files-x.ts
Формат : MPEG-TS
Размер файла : 2,56 Гбайт
Продолжительность : 47 м.
Режим общего битрейта : Переменный
Общий поток : 7773 Кбит/сек

Видео
Идентификатор : 68 (0x44)
Идентификатор меню : 1 (0x1)
Формат : AVC
Формат/Информация : Advanced Video Codec
Профиль формата : High@L4.0
Параметр CABAC формата : Да
Параметр ReFrames формата : 3 кадра
Параметр GOP формата : M=4, N=28
Идентификатор кодека : 27
Продолжительность : 47 м.
Битрейт : 7195 Кбит/сек
Ширина : 1920 пикселей
Высота : 1080 пикселей
Соотношение сторон : 16:9
Частота кадров : 25,000 кадров/сек
Стандарт вещания : Component
Цветовое пространство : YUV
Субдискретизация насыщенности : 4:2:0
Битовая глубина : 8 бит
Тип развёртки : Чересстрочная
Порядок развёртки : Верхнее поле первое
Бит/(Пиксели*Кадры) : 0.139
Размер потока : 2,37 Гбайт (93%)
Основные цвета : BT.709
Характеристики трансфера : BT.709
Коэффициенты матрицы : BT.709

Аудио
Идентификатор : 69 (0x45)
Идентификатор меню : 1 (0x1)
Формат : MPEG Audio
Версия формата : Version 1
Профиль формата : Layer 2
Идентификатор кодека : 3
Продолжительность : 47 м.
Вид битрейта : Постоянный
Битрейт : 192 Кбит/сек
Каналы : 2 канала
Частота : 48,0 КГц
Метод сжатия : С потерями
Размер потока : 64,7 Мбайт (2%)
Язык : Russian

Общее
Идентификатор : 1 (0x1)
Полное имя : D:VytasVideoGetery.majora.Sokolova.2014.HDTV.1080.Files-xGetery.majora.Sokolova.08.2014.HDTV.1080.Files-x.ts
Формат : MPEG-TS
Размер файла : 2,69 Гбайт
Продолжительность : 49 м.
Режим общего битрейта : Переменный
Общий поток : 7745 Кбит/сек

Видео
Идентификатор : 68 (0x44)
Идентификатор меню : 1 (0x1)
Формат : AVC
Формат/Информация : Advanced Video Codec
Профиль формата : High@L4.0
Параметр CABAC формата : Да
Параметр ReFrames формата : 3 кадра
Параметр GOP формата : M=4, N=28
Идентификатор кодека : 27
Продолжительность : 49 м.
Битрейт : 7169 Кбит/сек
Ширина : 1920 пикселей
Высота : 1080 пикселей
Соотношение сторон : 16:9
Частота кадров : 25,000 кадров/сек
Стандарт вещания : Component
Цветовое пространство : YUV
Субдискретизация насыщенности : 4:2:0
Битовая глубина : 8 бит
Тип развёртки : Чересстрочная
Порядок развёртки : Верхнее поле первое
Бит/(Пиксели*Кадры) : 0.138
Размер потока : 2,49 Гбайт (93%)
Основные цвета : BT.709
Характеристики трансфера : BT.709
Коэффициенты матрицы : BT.709

Аудио
Идентификатор : 69 (0x45)
Идентификатор меню : 1 (0x1)
Формат : MPEG Audio
Версия формата : Version 1
Профиль формата : Layer 2
Идентификатор кодека : 3
Продолжительность : 49 м.
Вид битрейта : Постоянный
Битрейт : 192 Кбит/сек
Каналы : 2 канала
Частота : 48,0 КГц
Метод сжатия : С потерями
Размер потока : 68,2 Мбайт (2%)
Язык : Russian



Скачать Гетеры.майора.Соколова.(01-08.из.08).(Бахтиер.Худойназаров).[2014.военный.драма.HDTV].[1080i].torrent без регистрации
Золото ЗОЛОТАЯ РАЗДАЧА! СКАЧАННОЕ НЕ ЗАСЧИТЫВАЕТСЯ! Золото
Дата: Зарегистрирован   [ Тип: внутренний ] Как тут cкачать?
MAGNET ссылка
MAGNET ссылка


Скачать .torrent

101 KB

Статус: проверено DHT
Скачан: торрент - 200 раз, раздача полностью - 29 раз
Размер: 20,04 GB
Оценка:  5 (Голосов: 1)
Поблагодарили: 1
Поделиться ссылкой на эту раздачу с друзьями:
В контактеFacebookОдноклассникиTwitterLivejournalМой МирLiveinternet
 

 
Показать сообщения:    


Вы не можете начинать темы
Вы не можете отвечать на сообщения
Вы не можете редактировать свои сообщения
Вы не можете удалять свои сообщения
Вы не можете голосовать в опросах
Вы не можете прикреплять файлы к сообщениям
Вы можете скачивать файлы