Loading...
Error

Скачать Географ глобус пропил (Александр Велединский) [2013, драма, BDRip-AVC] [1080p] [DUB] [Лицензия] [R.G. GoldenShara] торрент без регистрации

Статистика раздачи
Размер:  4,36 GB   |    Скачан:  420 раз

Полного источника не было: 2 года

 
 
 
Автор Сообщение

Bullit

[] 



Географ глобус пропил




Год выпуска: 2013
Страна: Россия
Жанр: драма
Продолжительность: 02:04:51
Режиссер: Александр Велединский
Сценарий: Александр Велединский, Рауф Кубаев, Валерий Тодоровский, Алексей Иванов
Продюсер: Вадим Горяинов, Леонид Лебедев, Валерий Тодоровский, Максим Коропцов, Елена Кожанова
Оператор: Владимир Башта
Композитор: Алексей Зубарев
В ролях:
Константин Хабенский (Виктор Служкин), Елена Лядова (Надежда Служкина), Александр Робак (Будкин), Евгения Брик (Кира), Анна Уколова (Ветка), Агриппина Стеклова (Роза Борисовна), Евгения Крегжде (Сашенька), Максим Лагашкин (Колесников), Анфиса Черных (Маша Большакова), Анастасия Золотко (Тата), Виктор Узун (директор школы), Илья Коркодинов (Шуруп)

Мировая премьера: 26 июля 2013
Релиз на DVD: 16 января 2014
Релиз на Blu-ray: 16 января 2014
Релиз от:

Описание:
Молодой биолог Виктор Служкин от безденежья идет работать учителем географии в обычную пермскую школу. Он борется, а потом и дружит с учениками, конфликтует с завучем, ведет десятиклассников в поход - сплавляться по реке. Еще он пьет с друзьями вино, пытается ужиться с женой и водит в детский сад маленькую дочку. Он просто живет...

Рейтинг

Качество: BDRip-AVC (1080p)
Формат: MKV
Видео: AVC; 1920x804 (2.40:1); 4547 Kbps; 24 fps; 0,123 bpp
Аудио: русский; AC3; 448 Kbps; CBR; 6 ch; 16 bit

Format : Matroska
Format version : Version 4 / Version 2
File size : 4.36 GiB
Duration : 2h 4mn
Overall bit rate : 4 994 Kbps
Movie name : cyberjam
Encoded date : UTC 2013-12-29 19:46:07
Writing application : mkvmerge v6.5.0 ('Isn't she lovely') built on Oct 20 2013 12:50:05
Writing library : libebml v1.3.0 + libmatroska v1.4.1

Video
ID : 1
Format : AVC
Format/Info : Advanced Video Codec
Format profile : High@L4.0
Format settings, CABAC : Yes
Format settings, ReFrames : 4 frames
Codec ID : V_MPEG4/ISO/AVC
Duration : 2h 4mn
Bit rate : 4 547 Kbps
Width : 1 920 pixels
Height : 804 pixels
Display aspect ratio : 2.40:1
Frame rate mode : Constant
Frame rate : 24.000 fps
Color space : YUV
Chroma subsampling : 4:2:0
Bit depth : 8 bits
Scan type : Progressive
Bits/(Pixel*Frame) : 0.123
Stream size : 3.88 GiB (89%)
Writing library : x264 core 138 r2358 9e941d1
Encoding settings : cabac=1 / ref=4 / deblock=1:-3:-3 / analyse=0x3:0x133 / me=umh / subme=11 / psy=1 / psy_rd=1.00:0.00 / mixed_ref=1 / me_range=32 / chroma_me=1 / trellis=2 / 8x8dct=1 / cqm=0 / deadzone=21,11 / fast_pskip=0 / chroma_qp_offset=-4 / threads=18 / lookahead_threads=3 / sliced_threads=0 / nr=0 / decimate=0 / interlaced=0 / bluray_compat=0 / constrained_intra=0 / bframes=8 / b_pyramid=2 / b_adapt=2 / b_bias=0 / direct=3 / weightb=1 / open_gop=0 / weightp=2 / keyint=230 / keyint_min=22 / scenecut=40 / intra_refresh=0 / rc_lookahead=60 / rc=2pass / mbtree=1 / bitrate=4547 / ratetol=1.0 / qcomp=0.60 / qpmin=0 / qpmax=69 / qpstep=4 / cplxblur=20.0 / qblur=0.5 / ip_ratio=1.40 / aq=1:1.00
Language : English
Default : Yes
Forced : No

Audio
ID : 2
Format : AC-3
Format/Info : Audio Coding 3
Mode extension : CM (complete main)
Format settings, Endianness : Big
Codec ID : A_AC3
Duration : 2h 4mn
Bit rate mode : Constant
Bit rate : 448 Kbps
Channel count : 6 channels
Channel positions : Front: L C R, Side: L R, LFE
Sampling rate : 48.0 KHz
Bit depth : 16 bits
Compression mode : Lossy
Stream size : 400 MiB (9%)
Language : Russian
Default : Yes
Forced : No

  • Фильм снят по мотивам романа Алексея Иванова «Географ глобус пропил» (написано в 1995 году, опубликовано в 2003 году).
  • Съёмки фильма прошли в 2011-2012 годах в Перми, Закамске, микрорайоне Нижняя Курья, посёлке Усьва Гремячинского района.





Скачать Географ.глобус.пропил.(Александр.Велединский).[2013.драма.BDRip-AVC].[1080p].[DUB].[Лицензия].[R.G.GoldenShara].torrent без регистрации
Золото ЗОЛОТАЯ РАЗДАЧА! СКАЧАННОЕ НЕ ЗАСЧИТЫВАЕТСЯ! Золото
Дата: Зарегистрирован   [ Тип: внутренний ] Как тут cкачать?
MAGNET ссылка
MAGNET ссылка


Скачать .torrent

11 KB

Статус: проверено
Скачан: торрент - 420 раз, раздача полностью - 2143 раз
Размер: 4,36 GB
Оценка:  4,8 (Голосов: 13)
Поблагодарили: 26
Поделиться ссылкой на эту раздачу с друзьями:
В контактеFacebookОдноклассникиTwitterLivejournalМой МирLiveinternet
 

 

sega62

[] 

Спасибо за хорошую работу ay
 

Wolend

[] 

чуточку не дотянул до фильма года, ибо по мне лучший Майор ! Рекомендую всем.
 

radist.s1

[] 

Фильм не смотрел,спасибо.
 

DimoNsteR

[] 

фильм шикарен!!!
 

Yurik_LP

[] 

Скорости, ПЛЗ!!!
 

DimoNsteR

[] 

Yurik_LP писал(а):

Скорости, ПЛЗ!!!
ОК
 

wuwechka

[] 

Ни у кого не осталось этого фильма ? А то не качается.
 
Показать сообщения:    


Вы не можете начинать темы
Вы не можете отвечать на сообщения
Вы не можете редактировать свои сообщения
Вы не можете удалять свои сообщения
Вы не можете голосовать в опросах
Вы не можете прикреплять файлы к сообщениям
Вы можете скачивать файлы