Loading...
Error

Скачать Пришельцы 3: Взятие Бастилии / Les Visiteurs: La Revolution (Жан-Мари Пуаре) [2016, комедия, BDRip] [1080p] [DUB Лицензия] [R.G. GoldenShara] торрент без регистрации

Статистика раздачи
Размер:  4,37 GB   |    Скачан:  194 раза

Полного источника не было: 12 часов

 
 
 
Автор Сообщение

LORDKILL

[] 


Пришельцы 3: Взятие Бастилии / Les Visiteurs: La Revolution


Год выпуска: 2016
Выпущено: Франция
Жанр: комедия
Продолжительность: 01:49:29
Перевод: Профессиональный (полное дублирование)

Режиссер: Жан-Мари Пуаре

В ролях: Кристиан Клавье, Жан Рено, Франк Дюбоск, Карин Вьяр, Сильви Тестю, Мари-Анн Шазель, Эри Абиттан, Алекс Лутс, Стефани де Крэенкур, Вероника Буланжер

Описание: Легендарные и любимые миллионами комедии «Пришельцы» и «Пришельцы 2: Коридоры времени» получили свое продолжение. Заключительная часть трилогии будет посвящена приключениям героев Жана Рено и Кристиана Клавье во времени, и на этот раз они попадут в одну из самых ярких эпох – время Великой Французской Революции. «Тот самый» качественный французский юмор, по которому скучали, блестящий актерский состав, пронизанный изящной иронией сценарий дают полное основание полагать, что современное прочтение культовых французских картин не оставит равнодушными ценителей жанра, поклонников легендарных актеров и всех любителей первоклассного европейского кино.







Качество: BDRip 1080p
Формат: MKV
Видео кодек: H.264
Аудио кодек: AC3
Видео: 1920x800 (2.40:1), 5075 kbps, 24.000 fps
Аудио: Русский (AC-3, 6ch, 640 kbps)

x264 [info]: frame I:2525 Avg QP:18.92 size:187913
x264 [info]: frame P:38237 Avg QP:21.87 size: 52401
x264 [info]: frame B:116909 Avg QP:24.14 size: 14435
x264 [info]: consecutive B-frames: 4.5% 3.4% 13.4% 18.0% 19.0% 38.7% 2.4% 0.3% 0.3%
encoded 157671 frames, 5.95 fps, 5072.70 kb/s
General
General
Complete name : I:\Фильмы (Не удалять)\R.G.Goldenshara\Пришельцы 3. Взятие Бастилии 2016 Dub Rus BDRip 1080p.mkv
Format : Matroska
Format version : Version 4 / Version 2
File size : 4.37 GiB
Duration : 1h 49mn
Overall bit rate : 5 715 Kbps
Movie name : Пришельцы 3. Взятие Бастилии 2016 Dub Rus BDRip 1080p #LORDKILL#
Encoded date : UTC 2016-12-31 11:57:59
Writing application : mkvmerge v7.8.0 ('River Man') 32bit built on Mar 27 2015 16:18:02
Writing library : libebml v1.3.1 + libmatroska v1.4.2
DURATION : 01:49:29.625000000
NUMBER_OF_FRAMES : 157671
NUMBER_OF_BYTES : 4165721583
_STATISTICS_WRITING_APP : mkvmerge v7.8.0 ('River Man') 32bit built on Mar 27 2015 16:18:02
_STATISTICS_WRITING_DATE_UTC : 2016-12-31 11:57:59
_STATISTICS_TAGS : BPS DURATION NUMBER_OF_FRAMES NUMBER_OF_BYTES

Video
ID : 1
Format : AVC
Format/Info : Advanced Video Codec
Format profile : High@L4.1
Format settings, CABAC : Yes
Format settings, ReFrames : 5 frames
Codec ID : V_MPEG4/ISO/AVC
Duration : 1h 49mn
Bit rate : 5 075 Kbps
Width : 1 920 pixels
Height : 800 pixels
Display aspect ratio : 2.40:1
Frame rate mode : Constant
Frame rate : 24.000 fps
Color space : YUV
Chroma subsampling : 4:2:0
Bit depth : 8 bits
Scan type : Progressive
Bits/(Pixel*Frame) : 0.138
Stream size : 3.79 GiB (87%)
Title : Пришельцы 3. Взятие Бастилии 2016 BDRip 1080p
Writing library : x264 core 146 r2538 121396c
Encoding settings : cabac=1 / ref=5 / deblock=1:-1:-1 / analyse=0x3:0x113 / me=umh / subme=10 / psy=1 / psy_rd=1.00:0.10 / mixed_ref=1 / me_range=32 / chroma_me=1 / trellis=2 / 8x8dct=1 / cqm=0 / deadzone=21,11 / fast_pskip=0 / chroma_qp_offset=-3 / threads=12 / lookahead_threads=2 / sliced_threads=0 / nr=0 / decimate=1 / interlaced=0 / bluray_compat=0 / constrained_intra=0 / bframes=8 / b_pyramid=2 / b_adapt=2 / b_bias=0 / direct=3 / weightb=1 / open_gop=0 / weightp=2 / keyint=240 / keyint_min=121 / scenecut=40 / intra_refresh=0 / rc=2pass / mbtree=0 / bitrate=5075 / ratetol=1.0 / qcomp=0.60 / qpmin=0 / qpmax=69 / qpstep=4 / cplxblur=20.0 / qblur=0.5 / ip_ratio=1.40 / pb_ratio=1.30 / aq=1:1.00
Default : Yes
Forced : No

Audio
ID : 2
Format : AC-3
Format/Info : Audio Coding 3
Mode extension : CM (complete main)
Format settings, Endianness : Big
Codec ID : A_AC3
Duration : 1h 49mn
Bit rate mode : Constant
Bit rate : 640 Kbps
Channel(s) : 6 channels
Channel positions : Front: L C R, Side: L R, LFE
Sampling rate : 48.0 KHz
Bit depth : 16 bits
Compression mode : Lossy
Stream size : 501 MiB (11%)
Title : Dub-AC3 [License]
Language : Russian
Default : No
Forced : No

Menu
00:00:00.000 : en:00:00:00.000
00:11:30.208 : en:00:11:30.208
00:18:02.250 : en:00:18:02.250
00:27:02.792 : en:00:27:02.792
00:36:10.708 : en:00:36:10.708
00:40:20.875 : en:00:40:20.875
00:52:28.208 : en:00:52:28.208
00:57:19.208 : en:00:57:19.208
01:07:22.042 : en:01:07:22.042
01:23:56.667 : en:01:23:56.667
01:36:39.750 : en:01:36:39.750
01:44:40.542 : en:01:44:40.542
01:49:29.625 : en:01:49:29.625





Скачать Пришельцы.3.Взятие.Бастилии.Les.Visiteurs.La.Revolution.(Жан-Мари.Пуаре).[2016.комедия.BDRip].[1080p].[DUB.Лицензия].[R.G.GoldenShara].torrent без регистрации
Золото ЗОЛОТАЯ РАЗДАЧА! СКАЧАННОЕ НЕ ЗАСЧИТЫВАЕТСЯ! Золото
Дата: Зарегистрирован   [ Тип: внутренний ] Как тут cкачать?
MAGNET ссылка
MAGNET ссылка


Скачать .torrent

11 KB

Статус: проверено
Скачан: торрент - 194 раз, раздача полностью - 142 раз
Размер: 4,37 GB
Оценка:  5 (Голосов: 6)
Поблагодарили: 20
Поделиться ссылкой на эту раздачу с друзьями:
В контактеFacebookОдноклассникиTwitterLivejournalМой МирLiveinternet
 

 

Magnetto83

[] 

az Огромное Спасибо Дружище! ay С меня апгрейд рипа после лицензии! ad
 

COLLAPSE

[] 

LORDKILL
только сегодня искал данный фильм к просмотру.Cпасибо
 

Голден Шура

[] 

LORDKILL, спасибо за отличный рип! Теперь для полной коллекций не хватает только "Коридоров времени"
 

Wolend

[] 

Вот думаю, смотреть или нет. Раньше пришельцы меня прикалывали, а тут рейтинг смущает...
 

Голден Шура

[] 

Wolend писал(а):

Вот думаю, смотреть или нет. Раньше пришельцы меня прикалывали, а тут рейтинг смущает...
Если поклонник предыдущих частей, то нужно смотреть. Конечно эта часть слабее всех предыдущих (в том числе и "Пришельцев в Америке"), но всё равно фильм порадовал. Озвучка Жакуя всё такая же, как и в "Коридорах времени" (лучшего фильма этой франшизы), а качество рипа (спасибо LORDKILL), просто изумительное! Так что, рейтинги рейтингами, а чтобы понять что к чему, нужно смотреть самому ab
 

Magnetto83

[] 

ab Обновлено!!! Замена звука на лицензию 640 Кбпс! Всем приятного просмотра! ad
 
Показать сообщения:    


Вы не можете начинать темы
Вы не можете отвечать на сообщения
Вы не можете редактировать свои сообщения
Вы не можете удалять свои сообщения
Вы не можете голосовать в опросах
Вы не можете прикреплять файлы к сообщениям
Вы можете скачивать файлы