Loading...
Error

Скачать Без лица / Face|Off (Джон Ву) [1997, Боевик, триллер, криминал, BDRip][1080p] [DUB Лицензия] [R.G. GoldenShara] торрент без регистрации

Статистика раздачи
Размер:  4,37 GB   |    Скачан:  152 раза
Сидов:  1  [  0 KB/s  ]  
 
 
 
Автор Сообщение

Magnetto83

[] 


Без лица / Face|Off


Год выпуска: 1997
Страна: США
Студии: Paramount Pictures, Touchstone Pictures, WCG Entertainment Productions
Жанр: Боевик, триллер, криминал
Продолжительность: 02:18:56
Перевод: Профессиональный (полное дублирование)
Субтитры: Русские (Форс.+Полные), Английские (Full)

Режиссер: Джон Ву

Слоган: «Взгляни на мир глазами своего врага»

В ролях: Джон Траволта, Николас Кейдж, Джоан Аллен, Алессандро Нивола, Джина Гершон, Доминик Суэйн, Ник Кассаветис, Харви Преснелл, Колм Фиор, Джон Кэрролл Линч, Си Си Эйч Паундер, Роберт Уиздом, Маргарет Чо, Джеймс Дентон, Мэтт Росс, Кристофер Бауэр, Майлс Джеффри, Дэвид МакКерли, Томас Джейн, Томми Флэнаган, Дэна Смит, Роми Уиндсор, Пол Хипп, Кирк Балц, Лорен Синклэр, Бен Рид, Лиза Бойл, Линда Хоффман, Дэнни Мастерсон, отец Майкл Роча, Меган Пол, Майк Уэрб, Том Рейнольдс, Стив Хитнер, Кармен Томас, Джон Блум, Уолтер Скотт, Брук Лесли, Кэм Брэйнэрд, Дэвид Уоршофски, Джон Найдлингер, Норм Комптон

Описание: Чтобы отомстить за жестокое убийство своего сына, агент ФБР Шон Арчер соглашается на сложную хирургическую операцию. Он берет себе новое лицо, лицо террориста Кастора Троя, который находится в коме.

Однако происходит непредвиденное: Трой приходит в себя и исчезает в обличье Арчера. Жизнь Шона превращается в настоящий кошмар — ему приходится сражаться не только за свою жизнь, но и за жизнь своей жены и дочери.




Возраст: 16+ (зрителям, достигшим 16 лет. запрещено для детей)
Рейтинг MPAA: R (лицам до 17 лет обязательно присутствие взрослого)

Качество: BDRip 1080p
Формат: MKV
Видео кодек: H.264
Аудио кодек: AC3
Видео: 1920x816 (2.35:1), 4625 Кбит/с, 23.976 fps
Аудио: Русский Dolby Digital 5.1 (384 Кбит/с) Дубляж [Blu-ray CEE]


General
Complete name : D:\Видео\1080 Собственные Рипы\Без Лица 1997 Dub Rus BDRip 1080p.mkv
Format : Matroska
Format version : Version 4 / Version 2
File size : 4.37 GiB
Duration : 2h 19mn
Overall bit rate : 4 496 Kbps
Movie name : Без Лица 1997 Dub Rus BDRip 1080p By Magnetto 83
Encoded date : UTC 2016-12-18 16:12:17
Writing application : mkvmerge v7.8.0 ('River Man') 32bit built on Mar 27 2015 16:18:02
Writing library : libebml v1.3.1 + libmatroska v1.4.2
DURATION : 02:13:06.001000000
NUMBER_OF_FRAMES : 1033
NUMBER_OF_BYTES : 55488
_STATISTICS_WRITING_APP : mkvmerge v7.8.0 ('River Man') 32bit built on Mar 27 2015 16:18:02
_STATISTICS_WRITING_DATE_UTC : 2016-12-18 16:12:17
_STATISTICS_TAGS : BPS DURATION NUMBER_OF_FRAMES NUMBER_OF_BYTES

Video
ID : 1
Format : AVC
Format/Info : Advanced Video Codec
Format profile : High@L4.1
Format settings, CABAC : Yes
Format settings, ReFrames : 5 frames
Codec ID : V_MPEG4/ISO/AVC
Duration : 2h 19mn
Bit rate : 4 110 Kbps
Width : 1 920 pixels
Height : 816 pixels
Display aspect ratio : 2.35:1
Frame rate mode : Constant
Frame rate : 23.976 fps
Color space : YUV
Chroma subsampling : 4:2:0
Bit depth : 8 bits
Scan type : Progressive
Bits/(Pixel*Frame) : 0.109
Stream size : 3.91 GiB (89%)
Title : Без Лица 1997 BDRip 1080p
Writing library : x264 core 146 r2538 121396c
Encoding settings : cabac=1 / ref=5 / deblock=1:-1:-1 / analyse=0x3:0x113 / me=umh / subme=10 / psy=1 / psy_rd=1.00:0.00 / mixed_ref=1 / me_range=32 / chroma_me=1 / trellis=2 / 8x8dct=1 / cqm=0 / deadzone=21,11 / fast_pskip=0 / chroma_qp_offset=-2 / threads=3 / lookahead_threads=1 / sliced_threads=0 / nr=0 / decimate=1 / interlaced=0 / bluray_compat=0 / constrained_intra=0 / bframes=8 / b_pyramid=2 / b_adapt=2 / b_bias=0 / direct=3 / weightb=1 / open_gop=0 / weightp=2 / keyint=250 / keyint_min=23 / scenecut=40 / intra_refresh=0 / rc=2pass / mbtree=0 / bitrate=4110 / ratetol=1.0 / qcomp=0.60 / qpmin=0 / qpmax=69 / qpstep=4 / cplxblur=20.0 / qblur=0.5 / ip_ratio=1.40 / pb_ratio=1.30 / aq=2:1.00
Default : Yes
Forced : No

Audio
ID : 2
Format : AC-3
Format/Info : Audio Coding 3
Mode extension : CM (complete main)
Format settings, Endianness : Big
Codec ID : A_AC3
Duration : 2h 19mn
Bit rate mode : Constant
Bit rate : 384 Kbps
Channel(s) : 6 channels
Channel positions : Front: L C R, Side: L R, LFE
Sampling rate : 48.0 KHz
Bit depth : 16 bits
Compression mode : Lossy
Stream size : 382 MiB (9%)
Title : Dub | DD 5.1 @ 384 kbps - Лицензия [Blu-ray CEE]
Language : Russian
Default : Yes
Forced : No

Text #1
ID : 3
Format : UTF-8
Codec ID : S_TEXT/UTF8
Codec ID/Info : UTF-8 Plain Text
Title : Forced
Language : Russian
Default : Yes
Forced : Yes

Text #2
ID : 4
Format : UTF-8
Codec ID : S_TEXT/UTF8
Codec ID/Info : UTF-8 Plain Text
Title : Полные
Language : Russian
Default : No
Forced : No

Text #3
ID : 5
Format : UTF-8
Codec ID : S_TEXT/UTF8
Codec ID/Info : UTF-8 Plain Text
Title : Full
Language : English
Default : No
Forced : No







Скачать Без.лица.Face|Off.(Джон.Ву).[1997.Боевик.триллер.криминал.BDRip][1080p].[DUB.Лицензия].[R.G.GoldenShara].torrent без регистрации
Золото ЗОЛОТАЯ РАЗДАЧА! СКАЧАННОЕ НЕ ЗАСЧИТЫВАЕТСЯ! Золото
Дата: Зарегистрирован   [ Тип: внутренний ] Как тут cкачать?
MAGNET ссылка
MAGNET ссылка


Скачать .torrent

11 KB

Статус: проверено
Скачан: торрент - 152 раз, раздача полностью - 134 раз
Размер: 4,37 GB
Оценка:  5 (Голосов: 5)
Поблагодарили: 15
Поделиться ссылкой на эту раздачу с друзьями:
В контактеFacebookОдноклассникиTwitterLivejournalМой МирLiveinternet
 

 

sobmaster

[] 

Magnetto83 писал(а):

Год выпуска: 2016
Фига се, а я всегда считал, что 1997!!! bw ag
 

mORFEY333

[] 

но он реально 1997....хотя пересмотреть можно..Кейдж и Траволта, тогда ещё не вышли в тираж....норм биивичок.....
 

Magnetto83

[] 

sobmaster писал(а):

Magnetto83 писал(а):

Год выпуска: 2016
Фига се, а я всегда считал, что 1997!!! bw ag
ah Бывает.... ag Решил обновить так кинчик!!! ad ab
 

dorga6

[] 

Спасибо! Рип как всегда супер, качество изумительное, завидую профи по кодированию!
ps Не в тему вопрос, но уж намучился и искать и просить раздать рип <Голод The Hunger (Тони Скотт) [1983, ужасы, триллер, драма, мелодрама, BDRip] [1080p] [DVO] + [MVO] [R.G. Goldenshara]>, я так понял что его уже никто не раздаст, а на Вашем сайте старые рипы поднимают со временем на раздачу? На руторе такое иногда бывает.
С наступившим Вас всех и всех Вам благ!!!
Пусть 2017 положит на лопатки прошедший год по жизненному уровню простых людей в лучшую сторону!
 

Magnetto83

[] 

dorga6 писал(а):

Спасибо! Рип как всегда супер, качество изумительное, завидую профи по кодированию!
С наступившим Вас всех и всех Вам благ!!!
Пусть 2017 положит на лопатки прошедший год по жизненному уровню простых людей в лучшую сторону!
az Пожалуйста!!! bs 100% согласен!!! ay И соответственно спасибо Вам за поздравление и всего желаю взаимно!!! az
 

Magnetto83

[] 

А "Голода 1983" у меня к сожалению нету! Сори! bn
 
Показать сообщения:    


Вы не можете начинать темы
Вы не можете отвечать на сообщения
Вы не можете редактировать свои сообщения
Вы не можете удалять свои сообщения
Вы не можете голосовать в опросах
Вы не можете прикреплять файлы к сообщениям
Вы можете скачивать файлы