Loading...
Error

Скачать Ледокол (Николай Хомерики) [2016, драма, BDRip] [1080p] [R.G. GoldenShara] торрент без регистрации

Статистика раздачи
Размер:  4,37 GB   |    Скачан:  318 раз

Полного источника не было: 2 дня 8 часов

 
 
 
Автор Сообщение

LORDKILL

[] 


Ледокол


Год выпуска: 2016
Выпущено: Россия
Жанр: драма
Продолжительность: 02:03:57
Перевод: Не требуется

Режиссер: Николай Хомерики

В ролях: Пётр Фёдоров, Сергей Пускепалис, Анна Михалкова, Ольга Филимонова, Александр Яценко, Александр Паль, Виталий Хаев, Алексей Барабаш, Дмитрий Муляр, Артур Чиргадзе

Описание: Основано на реальных событиях. 1985 год. Навстречу ледоколу «Михаил Громов» движется огромный айсберг. Уходя от столкновения с ним, судно попадает в ледовый плен и оказывается в вынужденном дрейфе вблизи побережья Антарктиды. Вокруг зловещая тишина и жуткий холод. Горючее на исходе… Нервы на пределе… И даже если можно было бы уйти – деваться все равно некуда. У командования ледокола нет права на ошибку. Одно неверное решение – и тяжелые льды раздавят судно…







Качество: BDRip 1080p
Формат: MKV
Видео кодек: H.264
Аудио кодек: AC3
Видео: 1920x800 (2.40:1), 4408 kbps, 24.000 fps
Аудио: Русский (AC-3, 6ch, 640 kbps)

x264 [info]: frame I:1303 Avg QP:17.94 size:113965
x264 [info]: frame P:46586 Avg QP:20.99 size: 42714
x264 [info]: frame B:130619 Avg QP:23.08 size: 14975
x264 [info]: consecutive B-frames: 3.6% 7.9% 10.7% 27.2% 21.9% 21.8% 5.4% 0.6% 1.0%
encoded 178508 frames, 6.23 fps, 4407.87 kb/s
General
Unique ID : 212487084465198583438005466246297603768 (0x9FDB861CC8A9E52C99542912F64ACEB8)
Complete name : E:\ФИЛЬМЫ\Ледокол.2016.x264.BDRip.1080p.mkv
Format : Matroska
Format version : Version 4 / Version 2
File size : 4.37 GiB
Duration : 2 h 3 min
Overall bit rate : 5 046 kb/s
Movie name : Ледокол (2016) - #LORDKILL#
Encoded date : UTC 2016-12-14 17:06:19
Writing application : mkvmerge v8.0.0 ('Til The Day That I Die') 64bit
Writing library : libebml v1.3.1 + libmatroska v1.4.2
Cover : Yes
Attachments : Cover - Ledokol.png

Video
ID : 1
Format : AVC
Format/Info : Advanced Video Codec
Format profile : High@L4.1
Format settings, CABAC : Yes
Format settings, ReFrames : 5 frames
Codec ID : V_MPEG4/ISO/AVC
Duration : 2 h 3 min
Bit rate : 4 408 kb/s
Width : 1 920 pixels
Height : 800 pixels
Display aspect ratio : 2.40:1
Frame rate mode : Constant
Frame rate : 24.000 FPS
Color space : YUV
Chroma subsampling : 4:2:0
Bit depth : 8 bits
Scan type : Progressive
Bits/(Pixel*Frame) : 0.120
Stream size : 3.81 GiB (87%)
Writing library : x264 core 148 r2638 7599210
Encoding settings : cabac=1 / ref=5 / deblock=1:-3:-3 / analyse=0x3:0x113 / me=umh / subme=11 / psy=1 / psy_rd=1.00:0.15 / mixed_ref=1 / me_range=64 / chroma_me=1 / trellis=2 / 8x8dct=1 / cqm=0 / deadzone=21,11 / fast_pskip=0 / chroma_qp_offset=-3 / threads=12 / lookahead_threads=2 / sliced_threads=0 / nr=0 / decimate=1 / interlaced=0 / bluray_compat=0 / constrained_intra=0 / bframes=8 / b_pyramid=2 / b_adapt=2 / b_bias=0 / direct=3 / weightb=1 / open_gop=0 / weightp=2 / keyint=240 / keyint_min=23 / scenecut=40 / intra_refresh=0 / rc_lookahead=60 / rc=2pass / mbtree=0 / bitrate=4408 / ratetol=1.0 / qcomp=0.60 / qpmin=0 / qpmax=69 / qpstep=4 / cplxblur=20.0 / qblur=0.5 / vbv_maxrate=62500 / vbv_bufsize=78125 / nal_hrd=none / filler=0 / ip_ratio=1.40 / pb_ratio=1.30 / aq=1:0.90
Default : Yes
Forced : No

Audio
ID : 2
Format : AC-3
Format/Info : Audio Coding 3
Mode extension : CM (complete main)
Format settings, Endianness : Big
Codec ID : A_AC3
Duration : 2 h 3 min
Bit rate mode : Constant
Bit rate : 640 kb/s
Channel(s) : 6 channels
Channel positions : Front: L C R, Side: L R, LFE
Sampling rate : 48.0 kHz
Frame rate : 31.250 FPS (1536 spf)
Bit depth : 16 bits
Compression mode : Lossy
Stream size : 567 MiB (13%)
Title : Лицензия
Language : Russian
Default : Yes
Forced : No

Menu
00:00:00.000 : ru:Chapter 01
00:01:27.666 : ru:Chapter 02
00:14:46.833 : ru:Chapter 03
00:29:43.208 : ru:Chapter 04
00:43:48.375 : ru:Chapter 05
01:00:09.125 : ru:Chapter 06
01:14:15.625 : ru:Chapter 07
01:29:17.625 : ru:Chapter 08
01:47:28.041 : ru:Chapter 09





Скачать Ледокол.(Николай.Хомерики).[2016.драма.BDRip].[1080p].[R.G.GoldenShara].torrent без регистрации
Золото ЗОЛОТАЯ РАЗДАЧА! СКАЧАННОЕ НЕ ЗАСЧИТЫВАЕТСЯ! Золото
Дата: Зарегистрирован   [ Тип: внутренний ] Как тут cкачать?
MAGNET ссылка
MAGNET ссылка


Скачать .torrent

11 KB

Статус: проверено
Скачан: торрент - 318 раз, раздача полностью - 716 раз
Размер: 4,37 GB
Оценка:  5 (Голосов: 11)
Поблагодарили: 20
Поделиться ссылкой на эту раздачу с друзьями:
В контактеFacebookОдноклассникиTwitterLivejournalМой МирLiveinternet
 

 

wuwechka

[] 

Спасибо.
 

sobmaster

[] 

Упс! А я как раз рипую этот фильм! Ну, тогда я с ним заканчиваю...

LORDKILL, дружище! Спасибо за работу, забираю в коллекцию!!! ay az
 

Magnetto83

[] 

ay Спасибо Дружище!!!! az
 

Woodworker

[] 

Раздал 32 ГБ., среди раздающих себя не видел, ну да ладно. За Rip спасибо.
 
Показать сообщения:    


Вы не можете начинать темы
Вы не можете отвечать на сообщения
Вы не можете редактировать свои сообщения
Вы не можете удалять свои сообщения
Вы не можете голосовать в опросах
Вы не можете прикреплять файлы к сообщениям
Вы можете скачивать файлы