Loading...
Error

Скачать Взрывная волна (01-02 из 02) (Георгий Гаврилов) [2017, детектив, HDTV] [1080i] торрент без регистрации

Статистика раздачи
Размер:  6,08 GB   |    Скачан:  60 раз
Сидов:  1  [  0 KB/s  ]  
 
 
 
Автор Сообщение

МихаНЕзатор

[] 

Информация о фильме
Оригинальное название: Взрывная волна
Год выпуска: 2017
Жанр: детектив
Режиссер: Георгий Гаврилов

В ролях: Анатолий Белый, Дмитрий Мазуров, Дмитрий Ратомский, Тарас Кузьмин, Тимур Ефременков, Евгений Березовский, Алёна Бабенко, Василий Мищенко

О фильме: Неуловимая банда похитила известных предпринимателей одного за другим, после чего сделала им «предложение, от которого нельзя отказаться»: на шеях жертв закрепили ошейники, внутри которых взрывчатка. Если бизнесмен не принесет бандитам выкуп за свою жизнь — прогремит взрыв. Найти и обезоружить банду террористов поручили одному из лучших сотрудников УВД Денису Брунову. Он хотел отказаться от дела из-за личных проблем. Но когда преступники надели на него стальной капкан, его жизнь изменилась



Страна: Россия
Студия: ООО "Творческое Объединение КЕДР"
Продолжительность: 2 x ~ 00:51:00

Файл
Кодек: h.264
Качество: HDTV 1080i
Видео: AVC/H.264, 1920x1080, ~ 7876 kbps
Аудио: MP2, 2 ch, 192 kbps

АНОНСЫ ПОПУЛЯРНЫХ РАЗДАЧ
Общее
Идентификатор : 1 (0x1)
Полное имя : D:Загрузки uTorrentVzryvnaya.volna.2016.HDTV.1080iVzryvnaya.volna.01.2016.HDTV.1080i.ts
Формат : MPEG-TS
Размер файла : 3,04 Гбайт
Продолжительность : 51 м. 12 с.
Режим общего битрейта : Переменный
Общий поток : 8490 Кбит/сек

Видео
Идентификатор : 901 (0x385)
Идентификатор меню : 1081 (0x439)
Формат : AVC
Формат/Информация : Advanced Video Codec
Профиль формата : Main@L4
Параметр CABAC формата : Да
Параметр ReFrames формата : 2 кадра
Параметр GOP формата : M=3, N=30
Идентификатор кодека : 27
Продолжительность : 51 м. 14 с.
Битрейт : 7876 Кбит/сек
Ширина : 1920 пикселей
Высота : 1080 пикселей
Соотношение сторон : 16:9
Частота кадров : 25,000 кадров/сек
Цветовое пространство : YUV
Субдискретизация насыщенности : 4:2:0
Битовая глубина : 8 бит
Тип развёртки : MBAFF
Метод сохранения типа развёртки : Чередующиеся поля
Порядок развёртки : Верхнее поле первое
Бит/(Пиксели*Кадры) : 0.152
Размер потока : 2,82 Гбайт (93%)
Цветовой диапазон : Limited
Основные цвета : BT.709
Характеристики трансфера : BT.709
Коэффициенты матрицы : BT.709

Аудио
Идентификатор : 902 (0x386)
Идентификатор меню : 1081 (0x439)
Формат : MPEG Audio
Версия формата : Version 1
Профиль формата : Layer 2
Идентификатор кодека : 3
Продолжительность : 51 м. 13 с.
Вид битрейта : Постоянный
Битрейт : 192 Кбит/сек
Каналы : 2 канала
Частота : 48,0 КГц
Метод сжатия : С потерями
Размер потока : 70,4 Мбайт (2%)
Язык : Russian



Скачать Взрывная.волна.(01-02.из.02).(Георгий.Гаврилов).[2017.детектив.HDTV].[1080i].torrent без регистрации
Золото ЗОЛОТАЯ РАЗДАЧА! СКАЧАННОЕ НЕ ЗАСЧИТЫВАЕТСЯ! Золото
Дата: Зарегистрирован   [ Тип: внутренний ] Как тут cкачать?
MAGNET ссылка
MAGNET ссылка


Скачать .torrent

31 KB

Статус: проверено DHT
Скачан: торрент - 60 раз, раздача полностью - 63 раз
Размер: 6,08 GB
Оценка:  4,5 (Голосов: 2)
Поблагодарили: 2
Поделиться ссылкой на эту раздачу с друзьями:
В контактеFacebookОдноклассникиTwitterLivejournalМой МирLiveinternet
 

 
Показать сообщения:    


Вы не можете начинать темы
Вы не можете отвечать на сообщения
Вы не можете редактировать свои сообщения
Вы не можете удалять свои сообщения
Вы не можете голосовать в опросах
Вы не можете прикреплять файлы к сообщениям
Вы можете скачивать файлы