Loading...
Error

Скачать Мурка / Murka (Серии 1-12 из 12) (Антон Розенберг, Ярослав Мочалов) [2017, Драма , детектив , HDTVRip 1080i] [DD5.1] торрент без регистрации

Статистика раздачи
Размер:  33,93 GB   |    Скачан:  78 раз
Сидов:  1  [  0 KB/s  ]  
 
 
 
Автор Сообщение

Nikolai.Baranov

[] 



Мурка / Murka Серии 1-12 из 12




Год выпуска: 2017
Выпущено: Россия ,, Студия Бонанза, Кинокомпания Про-синема
Жанр:Драма , детектив
Продолжительность: 00:50:00
Серии: 1-12
Количество серий в сезоне: 12

Озвучка : -Русский

Субтитры: НЕТ




Режиссер:
Антон Розенберг, Ярослав Мочалов

В ролях: Мария Луговая, Максим Дрозд, Михаил Пореченков, Нина Дворжецкая, Алёна Бабенко, Анатолий Гущин, Антон Хабаров, Сергей Гармаш, Светлана Ходченкова, Игорь Жижикин, Борис Полунин, Марина Куделинская, Джаник Файзиев, Алексей Бардуков, Артём Гайдуков, Максим Сапрыкин (II), Фёдор Леонов, Пётр Томашевский, Ксения Щербакова, Роман Синицын, Дмитрий Блохин, Александр Пашков, Станислав Эвентов, Александр Горбатов (II), Дмитрий Арбенин, Сергей Тэсслер, Алексей Игнатов, Илья Шляга



Сотрудница внутренних органов Мария Климова направлена в Одессу усмирять тамошнюю разгулявшуюся преступность, внедрившись под прикрытием в местную банду одного из самых крупных криминальных авторитетов — Бриллианта. Теперь она обычная воровка по кличке Мурка. При этом Мария так хорошо вживается в эту роль, что вскоре приобретает большое уважение со стороны своих новых «коллег» и становится прототипом Мурки из знаменитой песни…




Качество : HDTV 1080i
Формат: MKV
Видео кодек: H264
Видео: 7373Kбит/сек,1920х1080(16.9),в 25.046кадр/сек,AVC (High@L4)(CABAC/2 Ref Frames)
Аудио Кодек:AC3
Аудио #:AC3 , 384 Kbps, 48.0 KHz, 6 ch-Русский


Общее
Уникальный идентификатор : 195305223200602785404837229905546130667 (0x92EE6AF2B1D8677EB1B194F737D934EB)
Полное имя : C:\ПИРАТИЯ(PIRATIYA)\HDTV 1080p\МУРКА ( Murka )\Murka_2017_S01_Rus_1canal_Russia_H264_DD5.1_N.B_HDTV_1080i\Murka_2017_E01-E02_Rus_1canal_Russia_H264_DD5.1_N.B_HDTV_1080i.mkv
Формат : Matroska
Версия формата : Version 4 / Version 2
Размер файла : 5,71 Гбайт
Продолжительность : 1 ч. 45 м.
Режим общего битрейта : Переменный
Общий поток : 7759 Кбит/сек
Название фильма : Murka_2017_E01-E02_Rus_1canal_Russia_H264_DD5.1_N.B_HDTV_1080i
Дата кодирования : UTC 2017-03-14 05:54:45
Программа кодирования : mkvmerge v9.9.0 ('Pick Up') 64bit
Библиотека кодирования : libebml v1.3.4 + libmatroska v1.4.5

Видео
Идентификатор : 1
Формат : AVC
Формат/Информация : Advanced Video Codec
Профиль формата : High@L4
Параметр CABAC формата : Да
Параметр ReFrames формата : 2 кадра
Параметр GOP формата : M=2, N=15
Идентификатор кодека : V_MPEG4/ISO/AVC
Продолжительность : 1 ч. 45 м.
Вид битрейта : Переменный
Битрейт : 7373 Кбит/сек
Максимальный битрейт : 16,0 Мбит/сек
Ширина : 1920 пикселей
Высота : 1080 пикселей
Соотношение сторон : 16:9
Режим частоты кадров : Переменный
Частота кадров : 25,045 кадров/сек
Частота кадров в оригинале : 29,970 (30000/1001) кадров/сек
Цветовое пространство : YUV
Субдискретизация насыщенности : 4:2:0
Битовая глубина : 8 бит
Тип развёртки : Прогрессивная
Бит/(Пиксели*Кадры) : 0.142
Размер потока : 5,43 Гбайт (95%)
Заголовок : Murka_2017_E01-E02_Rus_1canal_Russia_H264_DD5.1_N.B_HDTV_1080i
Язык : Russian
Default : Нет
Forced : Нет

Аудио
Идентификатор : 2
Формат : AC-3
Формат/Информация : Audio Coding 3
Параметр Endianness формата : Big
Идентификатор кодека : A_AC3
Продолжительность : 1 ч. 45 м.
Вид битрейта : Постоянный
Битрейт : 384 Кбит/сек
Каналы : 6 каналов
Расположение каналов : Front: L C R, Side: L R, LFE
Частота : 48,0 КГц
Частота кадров : 31,250 кадров/сек (1536 spf)
Битовая глубина : 16 бит
Метод сжатия : С потерями
Размер потока : 290 Мбайт (5%)
Заголовок : Original@DD5.1 AC3 ,384 Kbps, 48.0 KHz, 6 ch
Язык : Russian
ServiceKind/String : Complete Main
Default : Нет
Forced : Нет

Меню
00:00:00.000 : en:Глава 01 / en:Глава 01







1. Открыть торрент
2. Снять галки с тех файлов торрента, которые мы не хотим закачивать. Оставляем только на нужных нам файлах (файле).
3. Нажать О.К.

В клиенте utorrent

Инструкция

1) Открыть торрент


2) Снять галки с тех файлов торрента, которые мы не хотим закачивать:

* либо вручную, снимая с каждого файла галку( скрин №1)
* либо, нажав кнопку "Снять метки (Select None)", сняв сразу со всех файлов(скрин №2)
№1

№2

Оставляем только на нужных нам файлах (файле).

3)Нажать О.К






Внимание!!! 17.03. 2017. РАЗДАЧА ОБНОВЛЕНА. ФИНАЛ СЕРИАЛА. ОБНОВИТЕ ТОРЕНТ ФАЙЛ.ПРИЯТНОГО ПРОСМОТРА .

Релиз от: Nikolai.Baranov & PIRATIYA










Скачать Мурка.Murka.(Серии.1-12.из.12).(Антон.Розенберг.Ярослав.Мочалов).[2017.Драма.детектив.HDTVRip.1080i].[DD5.1].torrent без регистрации
Золото ЗОЛОТАЯ РАЗДАЧА! СКАЧАННОЕ НЕ ЗАСЧИТЫВАЕТСЯ! Золото
Дата: Зарегистрирован   [ Тип: внутренний ] Как тут cкачать?
MAGNET ссылка
MAGNET ссылка


Скачать .torrent

88 KB

Статус: проверено DHT
Скачан: торрент - 78 раз, раздача полностью - 7 раз
Размер: 33,93 GB
Оценка:  5 (Голосов: 1)
Поблагодарили: 3
Поделиться ссылкой на эту раздачу с друзьями:
В контактеFacebookОдноклассникиTwitterLivejournalМой МирLiveinternet
 

 
Показать сообщения:    


Вы не можете начинать темы
Вы не можете отвечать на сообщения
Вы не можете редактировать свои сообщения
Вы не можете удалять свои сообщения
Вы не можете голосовать в опросах
Вы не можете прикреплять файлы к сообщениям
Вы можете скачивать файлы