Loading...
Error

Скачать National Geographic. От колыбели до могилы / Cradle to Grave (Джеймс Товелл) [2017, документальный, драма, HDTVRip] [720p] [MVO] торрент без регистрации

Статистика раздачи
Размер:  3,45 GB   |    Скачан:  35 раз
Сидов:  1  [  0 KB/s  ]  
 
 
 
Автор Сообщение

Marsianka

[] 

От колыбели до могилы / Cradle to Grave

Страна: США
Производство: National Geographic, Pioneer Film and Television Productions
Год выпуска: 2017
Жанр: документальный, драма
Продолжительность: 01:28:00

Режиссер: Джеймс Товелл
Автор сценария: Джеймс Товелл

В ролях: Джордж Р. Робертсон, Дэн Дюран, Райан Джинс, Джилл Фраппье, Ванесса Смит, Сэверн Томпсон, Алекс Хансен, Линзи Барклай

Описание: Пользуясь волшебством последних достижений Дэвида Бэрлоу в области визуальных эффектов, мы расскажем вам об устройстве человеческого тела. Вы узнаете о том, как на него влияет внешняя среда, как оно развивается и умирает в этом путешествии с заранее известным финалом, которое мы называет жизнь. Следя за жизнью нашего героя Адама, мы раскроем невероятные изменения и силы, которые проходят все люди от рождения до смерти...



Перевод: Профессиональный (многоголосый закадровый )
Субтитры: нет
Качество: HDTVRip 720p
Формат: MKV
Видео кодек: AVC
Аудио кодек: AС3
Видео: 1280x720 (16:9), 59.940 fps, MPEG-4 AVC ~5 000 kbps avg
Аудио №1: 48.0 kHz, AC3 Dolby Digital, 2/0 (L,R) ch, ~192 kbps | RUS
Аудио №2: 48.0 kHz, AC3 Dolby Digital, 3/2 (L,C,R,l,r) + LFE ch, ~384 kbps | ENG
Дата премьеры (мир): 8 января 2017

Релиз от:

Format : Matroska
Format version : Version 4 / Version 2
File size : 3.45 GiB
Duration : 1 h 28 min
Overall bit rate : 5 579 kb/s
Encoded date : UTC 2017-04-11 01:04:16
Writing application : mkvmerge v7.8.0 ('River Man') 32bit built on Mar 27 2015 16:18:02
Writing library : libebml v1.3.1 + libmatroska v1.4.2

Video
ID : 1
Format : AVC
Format/Info : Advanced Video Codec
Format profile : High@L4.1
Format settings, CABAC : Yes
Format settings, ReFrames : 8 frames
Codec ID : V_MPEG4/ISO/AVC
Duration : 1 h 28 min
Bit rate : 5 000 kb/s
Width : 1 280 pixels
Height : 720 pixels
Display aspect ratio : 16:9
Frame rate mode : Constant
Frame rate : 59.940 (59940/1000) FPS
Original frame rate : 59.940 (60000/1001) FPS
Color space : YUV
Chroma subsampling : 4:2:0
Bit depth : 8 bits
Scan type : Progressive
Bits/(Pixel*Frame) : 0.091
Stream size : 3.09 GiB (90%)
Writing library : x264 core 146 r2538 121396c
Encoding settings : cabac=1 / ref=8 / deblock=1:-1:-1 / analyse=0x3:0x113 / me=umh / subme=9 / psy=1 / psy_rd=1.00:0.20 / mixed_ref=1 / me_range=36 / chroma_me=1 / trellis=2 / 8x8dct=1 / cqm=0 / deadzone=21,11 / fast_pskip=0 / chroma_qp_offset=-3 / threads=12 / lookahead_threads=1 / sliced_threads=0 / nr=0 / decimate=0 / interlaced=0 / bluray_compat=0 / constrained_intra=0 / bframes=6 / b_pyramid=2 / b_adapt=2 / b_bias=0 / direct=3 / weightb=1 / open_gop=0 / weightp=2 / keyint=250 / keyint_min=25 / scenecut=40 / intra_refresh=0 / rc_lookahead=50 / rc=2pass / mbtree=1 / bitrate=5000 / ratetol=1.0 / qcomp=0.60 / qpmin=0 / qpmax=69 / qpstep=4 / cplxblur=20.0 / qblur=0.5 / vbv_maxrate=14000 / vbv_bufsize=14000 / nal_hrd=none / filler=0 / ip_ratio=1.40 / aq=1:1.00
Language : Russian
Default : Yes
Forced : No

Audio #1
ID : 2
Format : AC-3
Format/Info : Audio Coding 3
Format settings, Endianness : Big
Codec ID : A_AC3
Duration : 1 h 28 min
Bit rate mode : Constant
Bit rate : 192 kb/s
Channel(s) : 2 channels
Channel positions : Front: L R
Sampling rate : 48.0 kHz
Frame rate : 31.250 FPS (1536 spf)
Bit depth : 16 bits
Compression mode : Lossy
Stream size : 121 MiB (3%)
Language : Russian
Service kind : Complete Main
Default : Yes
Forced : No

Audio #2
ID : 3
Format : AC-3
Format/Info : Audio Coding 3
Format settings, Endianness : Big
Codec ID : A_AC3
Duration : 1 h 28 min
Bit rate mode : Constant
Bit rate : 384 kb/s
Channel(s) : 6 channels
Channel positions : Front: L C R, Side: L R, LFE
Sampling rate : 48.0 kHz
Frame rate : 31.250 FPS (1536 spf)
Bit depth : 16 bits
Compression mode : Lossy
Stream size : 243 MiB (7%)
Language : English
Service kind : Complete Main
Default : No
Forced : No



Скачать National.Geographic.От.колыбели.до.могилы.Cradle.to.Grave.(Джеймс.Товелл).[2017.документальный.драма.HDTVRip].[720p].[MVO].torrent без регистрации
Золото ЗОЛОТАЯ РАЗДАЧА! СКАЧАННОЕ НЕ ЗАСЧИТЫВАЕТСЯ! Золото
Дата: Зарегистрирован   [ Тип: внутренний ] Как тут cкачать?
MAGNET ссылка
MAGNET ссылка


Скачать .torrent

18 KB

Статус: проверено DHT
Скачан: торрент - 35 раз, раздача полностью - 18 раз
Размер: 3,45 GB
Оценка:  5 (Голосов: 1)
Поблагодарили: 5
Поделиться ссылкой на эту раздачу с друзьями:
В контактеFacebookОдноклассникиTwitterLivejournalМой МирLiveinternet
 

 
Показать сообщения:    


Вы не можете начинать темы
Вы не можете отвечать на сообщения
Вы не можете редактировать свои сообщения
Вы не можете удалять свои сообщения
Вы не можете голосовать в опросах
Вы не можете прикреплять файлы к сообщениям
Вы можете скачивать файлы