Loading...
Error

Скачать Мусор / Trashed (Кандида Брэди) [2012, документальный, WEB-DL] [720p] [DVO]+[Sub] торрент без регистрации

Статистика раздачи
Размер:  3,18 GB   |    Скачан:  24 раза
Сидов:  1  [  0 KB/s  ]  
 
 
 
Автор Сообщение

Marsianka

[] 

Информация о фильме
Название: Мусор
Оригинальное название: Trashed
Год выхода: 2012
Жанр: документальный
Режиссер: Кандида Брэди
В ролях: Джереми Айронс

О фильме:
Вместе с Джереми Айронсом создатели этого документального фильма изучают опасность загрязнения земли, воздуха и воды отходами и влияние этого загрязнения на пищевую цепочку и окружающую среду. Лента раскрывает удивительные факты, касающиеся серьезной угрозы нашему здоровью. Она построена в форме глобального разговора между Джереми Айронсом и жителями нашей планеты — от Исландии до Индонезии. Среди собеседников — ученые, политики и простые люди, чье здоровье и образ жизни пострадали от проблемы загрязнения окружающей среды отходами. С точки зрения визуального и эмоционального восприятия лента, связывающая истории из жизни и политические «тревожные звонки», представляется одновременно ужасной и прекрасной. Но завершается она посланием надежды. Фильм показывает, что опасности можно избежать с помощью развития долгосрочных проектов, которые помогут создать больше рабочих мест в области переработки отходов.


Страна: США
Студия: Blenheim Films, Rose Pictures
Продолжительность: 01:38:00
Перевод: Профессиональный двухголосый

Файл
Кодек: x264
Качество: WEB-DL 720p
Видео: MPEG-4 AVC, 3905 Кбит/с, 1280x720, 24 кадр/с
Аудио #1: AC3, 6 ch, 384 Кбит/с | Русский
Аудио #2: AC3, 6 ch, 384 Кбит/с | Aнглийский
Субтитры: Английские
Общее
Уникальный идентификатор : 228819377946129890385893605490652362656 (0xAC250259E62A796C82510D91F65037A0)
Полное имя : Trashed.2012.720p.WEB-DL.mkv
Формат : Matroska
Версия формата : Version 4 / Version 2
Размер файла : 3,18 Гбайт
Продолжительность : 1 ч. 38 м.
Режим общего битрейта : Переменный
Общий поток : 4644 Кбит/сек
Название фильма : Trashed.2012.720p.WEB-DL by Koenig
Дата кодирования : UTC 2017-05-02 16:19:52
Программа кодирования : mkvmerge v9.2.0 ('Photograph') 32bit
Библиотека кодирования : libebml v1.3.3 + libmatroska v1.4.4
Обложка : Yes
Attachments : cover.jpg

Видео
Идентификатор : 1
Формат : AVC
Формат/Информация : Advanced Video Codec
Профиль формата : High@L3.1
Параметр CABAC формата : Да
Параметр ReFrames формата : 2 кадра
Идентификатор кодека : V_MPEG4/ISO/AVC
Продолжительность : 1 ч. 37 м.
Вид битрейта : Переменный
Битрейт : 3905 Кбит/сек
Максимальный битрейт : 768 Кбит/сек
Ширина : 1280 пикселей
Высота : 720 пикселей
Соотношение сторон : 16:9
Режим частоты кадров : Постоянный
Частота кадров : 24,000 кадра/сек
Цветовое пространство : YUV
Субдискретизация насыщенности : 4:2:0
Битовая глубина : 8 бит
Тип развёртки : Прогрессивная
Бит/(Пиксели*Кадры) : 0.177
Размер потока : 2,65 Гбайт (83%)
Заголовок : Trashed.2012.720p.WEB-DL.DD5.1.H.264-Coo7
Язык : English
Default : Да
Forced : Нет

Аудио #1
Идентификатор : 2
Формат : AC-3
Формат/Информация : Audio Coding 3
Расширение режима : CM (complete main)
Параметр Endianness формата : Big
Идентификатор кодека : A_AC3
Продолжительность : 1 ч. 38 м.
Вид битрейта : Постоянный
Битрейт : 384 Кбит/сек
Каналы : 6 каналов
Расположение каналов : Front: L C R, Side: L R, LFE
Частота : 48,0 КГц
Частота кадров : 31,250 кадров/сек (1536 spf)
Битовая глубина : 16 бит
Метод сжатия : С потерями
Размер потока : 269 Мбайт (8%)
Заголовок : DVO
Язык : Russian
Default : Да
Forced : Нет

Аудио #2
Идентификатор : 3
Формат : AC-3
Формат/Информация : Audio Coding 3
Расширение режима : CM (complete main)
Параметр Endianness формата : Big
Идентификатор кодека : A_AC3
Продолжительность : 1 ч. 37 м.
Вид битрейта : Постоянный
Битрейт : 384 Кбит/сек
Каналы : 6 каналов
Расположение каналов : Front: L C R, Side: L R, LFE
Частота : 48,0 КГц
Частота кадров : 31,250 кадров/сек (1536 spf)
Битовая глубина : 16 бит
Метод сжатия : С потерями
Размер потока : 267 Мбайт (8%)
Язык : English
Default : Нет
Forced : Нет

Текст
Идентификатор : 4
Формат : UTF-8
Идентификатор кодека : S_TEXT/UTF8
Идентификатор кодека/Информация : UTF-8 Plain Text
Продолжительность : 1 ч. 32 м.
Битрейт : 114 бит/сек
Count of elements : 1583
Размер потока : 77,6 Кбайт (0%)
Язык : English
Default : Да
Forced : Нет



Скачать Мусор.Trashed.(Кандида.Брэди).[2012.документальный.WEB-DL].[720p].[DVO]+[Sub].torrent без регистрации
Золото ЗОЛОТАЯ РАЗДАЧА! СКАЧАННОЕ НЕ ЗАСЧИТЫВАЕТСЯ! Золото
Дата: Зарегистрирован   [ Тип: внутренний ] Как тут cкачать?
MAGNET ссылка
MAGNET ссылка


Скачать .torrent

17 KB

Статус: проверено DHT
Скачан: торрент - 24 раз, раздача полностью - 6 раз
Размер: 3,18 GB
Оценка:  5 (Голосов: 1)
Поблагодарили: 1
Поделиться ссылкой на эту раздачу с друзьями:
В контактеFacebookОдноклассникиTwitterLivejournalМой МирLiveinternet
 

 
Показать сообщения:    


Вы не можете начинать темы
Вы не можете отвечать на сообщения
Вы не можете редактировать свои сообщения
Вы не можете удалять свои сообщения
Вы не можете голосовать в опросах
Вы не можете прикреплять файлы к сообщениям
Вы можете скачивать файлы