Loading...
Error

Скачать Толстый, больной и почти мёртвый 2 / Fat, Sick & Nearly Dead 2 (Курт Энгфер) [2014, документальный, WEBRip] [720p] [VO] торрент без регистрации

Статистика раздачи
Размер:  1,52 GB   |    Скачан:  26 раз
Сидов:  1  [  0 KB/s  ]  
 
 
 
Автор Сообщение

Marsianka

[] 

Информация о фильме
Название: Толстый, больной и почти мёртвый 2
Оригинальное название: Fat, Sick & Nearly Dead 2
Год выхода: 2014
Жанр: документальный (ЗОЖ)
Режиссер: Kurt Engfehr / Курт Энгфер
В ролях: Joe Cross, Bjarke de Koning, Phil Staples

О фильме:
Как оставаться здоровым в преимущественно нездоровом мире? Прошло 5 лет, как мы выпустили «Толстого, Больного и Почти Мёртвого». К тому моменту я потерял 37 килограммов, слез со всех лекарств, и чувствовал себя фантастически! Я многое понял за эти пять лет, и, в первую очередь, до меня дошло, что – да, сбросить вес было трудно, но Бог мой, не менее сложно и держать его. Поэтому, я снова в пути, чтобы выяснить, как оставаться здоровым в преимущественно нездоровом мире?



Перевод Святослав Макаров.
Звук Сергей Горин; Вадим Савченко.
2015г

Формат : AVI
Формат/Информация : Audio Video Interleave
Профиль формата : OpenDML
Размер файла : 1,52 Гбайт
Продолжительность : 1 ч. 29 м.
Общий поток : 2442 Кбит/сек
TCOD : 0
TCDO : 53427957916

Видео
Идентификатор : 0
Формат : MPEG-4 Visual
Профиль формата : Advanced Simple@L5
Параметр BVOP формата : 2
Параметр QPel формата : Нет
Параметр GMC формата : Без точки перехода
Параметр матрицы формата : Default (MPEG)
Режим смешивания : Сжатый битовый поток
Идентификатор кодека : XVID
Идентификатор кодека/Подсказка : XviD
Продолжительность : 1 ч. 29 м.
Битрейт : 2101 Кбит/сек
Ширина : 1280 пикселей
Высота : 720 пикселей
Соотношение сторон : 16:9
Частота кадров : 23,976 кадра/сек
Цветовое пространство : YUV
Субдискретизация насыщенности : 4:2:0
Битовая глубина : 8 бит
Тип развёртки : Прогрессивная
Метод сжатия : С потерями
Бит/(Пиксели*Кадры) : 0.095
Размер потока : 1,31 Гбайт (86%)
Библиотека кодирования : XviD 66

Аудио
Идентификатор : 1
Формат : MPEG Audio
Версия формата : Version 1
Профиль формата : Layer 3
Режим : Joint stereo
Идентификатор кодека : 55
Идентификатор кодека/Подсказка : MP3
Продолжительность : 1 ч. 29 м.
Вид битрейта : Постоянный
Битрейт : 256 Кбит/сек
Каналы : 2 канала
Частота : 48,0 КГц
Метод сжатия : С потерями
Размер потока : 163 Мбайт (10%)
Выравнивание : Соединение по промежуткам
Продолжительность промежутка : 250 мс. (5,99 видеокадров)
Время предзагрузки промежутка : 216 мс.
Страна: Australia, USA
Продолжительность: 01:29:02
Перевод: Профессиональный двухголосый закадровый

Файл
Кодек: XVID
Качество: WEBRip 720p
Видео: 1280x720 23.976fps 2101kbps
Звук: MP3 48000Hz stereo 256kbps
Субтитры: нет Релиз от: АзъЕсмь (Сергей Горин, Святослав Макаров)



Скачать Толстый.больной.и.почти.мёртвый.2.Fat.Sick.&.Nearly.Dead.2.(Курт.Энгфер).[2014.документальный.WEBRip].[720p].[VO].torrent без регистрации
Золото ЗОЛОТАЯ РАЗДАЧА! СКАЧАННОЕ НЕ ЗАСЧИТЫВАЕТСЯ! Золото
Дата: Зарегистрирован   [ Тип: внутренний ] Как тут cкачать?
MAGNET ссылка
MAGNET ссылка


Скачать .torrent

16 KB

Статус: проверено DHT
Скачан: торрент - 26 раз, раздача полностью - 2 раз
Размер: 1,52 GB
Оценка:  5 (Голосов: 1)
Поблагодарили: 3
Поделиться ссылкой на эту раздачу с друзьями:
В контактеFacebookОдноклассникиTwitterLivejournalМой МирLiveinternet
 

 
Показать сообщения:    


Вы не можете начинать темы
Вы не можете отвечать на сообщения
Вы не можете редактировать свои сообщения
Вы не можете удалять свои сообщения
Вы не можете голосовать в опросах
Вы не можете прикреплять файлы к сообщениям
Вы можете скачивать файлы