Loading...
Error

Скачать Суррогаты / Surrogates (Джонатан Мостоу) [2009, фантастика, боевик, триллер, BDRip-HEVC] [1080p] [Dub]+[Оригинал]+[Sub]x3 торрент без регистрации

Статистика раздачи
Размер:  3,96 GB   |    Скачан:  42 раза
Сидов:  1  [  0 KB/s  ]  
 
 
 
Автор Сообщение

Marsianka

[] 

Информация о фильме
Название Суррогаты
Оригинальное название: Surrogates
Год выхода: 2009
Жанр: фантастика, боевик, триллер
Режиссер: Джонатан Мостоу
В ролях: Брюс Уиллис, Рада Митчелл, Розамунд Пайк, Борис Коджо, Джеймс Джинти, Джеймс Кромуэлл, Винг Реймз, Джек Ноузуорти, Девин Рэтрей, Майкл Кудлиц

О фильме:
Действие разворачивается в будущем, в 2057 году, — когда люди практически перестанут общаться между собой и полностью возложат эту функцию на плечи роботов-заменителей. Они сильнее, моложе, привлекательнее своих обладателей и даже могут быть другого пола. Но находится террорист, начинающий уничтожать идеальных андроидов. Полицейскому Тому Гриру предстоит узнать, какие причины движут злоумышленником, лишающим жизни людей и их марионеток, технически и физически совершенных.



Страна: США
Продолжительность: 01:28:36
Перевод: Дублированный

Файл
Кодек: HEVC 10bit
Качество: BDRip 1080p
Видео: 1920x800 at 23.976 fps, x265@Main 10@L4@Main, crf, ~5435 kbps avg

1: Russian: 48.0 KHz, AC-3, 3/2 (L,C,R,l,r) + LFE ch, ~640 Kbps avg | Dub
2: English: 48.0 KHz, AAC, 3/2 (L,C,R,l,r) + LFE ch, ~326 Kbps avg | Original
Субтитры: Russian (Forced), Russian (Full), English (Full)

General
Unique ID : 211440622514264130814021658944159130161 (0x9F11FB8E08967F9082E3924A8E08A231)
Complete name : Суррогаты.2009.HEVC.mkv
Format : Matroska
Format version : Version 4 / Version 2
File size : 3.96 GiB
Duration : 1h 28mn
Overall bit rate : 6 405 Kbps
Movie name : Surrogates
Encoded date : UTC 2017-07-11 16:45:14
Writing application : mkvmerge v9.5.0 ('Quiet Fire') 64bit
Writing library : libebml v1.3.4 + libmatroska v1.4.5

Video
ID : 1
Format : HEVC
Format/Info : High Efficiency Video Coding
Format profile : Main 10@L4@Main
Codec ID : V_MPEGH/ISO/HEVC
Duration : 1h 28mn
Bit rate : 5 436 Kbps
Width : 1 920 pixels
Height : 800 pixels
Display aspect ratio : 2.40:1
Frame rate mode : Constant
Frame rate : 23.976 (24000/1001) fps
Color space : YUV
Chroma subsampling : 4:2:0
Bit depth : 10 bits
Bits/(Pixel*Frame) : 0.148
Stream size : 3.36 GiB (85%)
Title : HEVC
Writing library : x265 2.3+27-7e137e3ae083:[Windows][GCC 5.3.1][64 bit] 10bit
Encoding settings : cpuid=1173503 / frame-threads=2 / numa-pools=4 / wpp / no-pmode / no-pme / no-psnr / no-ssim / log-level=2 / input-csp=1 / input-res=1920x800 / interlace=0 / total-frames=0 / level-idc=0 / high-tier=1 / uhd-bd=0 / ref=4 / no-allow-non-conformance / no-repeat-headers / annexb / no-aud / no-hrd / info / hash=0 / no-temporal-layers / open-gop / min-keyint=23 / keyint=250 / bframes=10 / b-adapt=2 / b-pyramid / bframe-bias=0 / rc-lookahead=60 / lookahead-slices=0 / scenecut=40 / no-intra-refresh / ctu=64 / min-cu-size=8 / no-rect / no-amp / max-tu-size=32 / tu-inter-depth=4 / tu-intra-depth=4 / limit-tu=4 / rdoq-level=2 / dynamic-rd=0.00 / signhide / no-tskip / nr-intra=0 / nr-inter=0 / no-constrained-intra / strong-intra-smoothing / max-merge=3 / limit-refs=3 / no-limit-modes / me=3 / subme=5 / merange=57 / temporal-mvp / weightp / weightb / no-analyze-src-pics / deblock=-3:-3 / no-sao / no-sao-non-deblock / rd=4 / no-early-skip / rskip / no-fast-intra / no-tskip-fast / no-cu-lossless / b-intra / rdpenalty=0 / psy-rd=1.00 / psy-rdoq=1.00 / no-rd-refine / analysis-mode=0 / no-lossless / cbqpoffs=0 / crqpoffs=0 / rc=crf / crf=20.0 / qcomp=0.80 / qpstep=4 / stats-write=0 / stats-read=0 / ipratio=1.40 / pbratio=1.30 / aq-mode=1 / aq-strength=0.30 / cutree / zone-count=0 / no-strict-cbr / qg-size=32 / no-rc-grain / qpmax=69 / qpmin=0 / sar=0 / overscan=0 / videoformat=5 / range=0 / colorprim=2 / transfer=2 / colormatrix=2 / chromaloc=0 / display-window=0 / max-cll=0,0 / min-luma=0 / max-luma=1023 / log2-max-poc-lsb=8 / vui-timing-info / vui-hrd-info / slices=1 / opt-qp-pps / opt-ref-list-length-pps / no-multi-pass-opt-rps / scenecut-bias=0.05 / no-opt-cu-delta-qp / no-aq-motion / no-hdr / no-hdr-opt / refine-level=5
Default : Yes
Forced : No

Audio #1
ID : 2
Format : AC-3
Format/Info : Audio Coding 3
Mode extension : CM (complete main)
Format settings, Endianness : Big
Codec ID : A_AC3
Duration : 1h 28mn
Bit rate mode : Constant
Bit rate : 640 Kbps
Channel(s) : 6 channels
Channel positions : Front: L C R, Side: L R, LFE
Sampling rate : 48.0 KHz
Frame rate : 31.250 fps (1536 spf)
Compression mode : Lossy
Stream size : 406 MiB (10%)
Title : Dub
Language : Russian
Default : Yes
Forced : No

Audio #2
ID : 3
Format : AAC
Format/Info : Advanced Audio Codec
Format profile : LC
Codec ID : A_AAC
Duration : 1h 28mn
Bit rate : 326 Kbps
Channel(s) : 6 channels
Channel positions : Front: L C R, Side: L R, LFE
Sampling rate : 48.0 KHz
Frame rate : 46.875 fps (1024 spf)
Compression mode : Lossy
Stream size : 207 MiB (5%)
Title : Original
Language : English
Default : No
Forced : No

Text #1
ID : 4
Format : UTF-8
Codec ID : S_TEXT/UTF8
Codec ID/Info : UTF-8 Plain Text
Duration : 1h 18mn
Bit rate : 4 bps
Count of elements : 51
Stream size : 2.36 KiB (0%)
Title : Forced
Language : Russian
Default : Yes
Forced : Yes

Text #2
ID : 5
Format : UTF-8
Codec ID : S_TEXT/UTF8
Codec ID/Info : UTF-8 Plain Text
Duration : 1h 23mn
Bit rate : 73 bps
Count of elements : 856
Stream size : 45.2 KiB (0%)
Title : Full
Language : Russian
Default : No
Forced : No

Text #3
ID : 6
Format : UTF-8
Codec ID : S_TEXT/UTF8
Codec ID/Info : UTF-8 Plain Text
Duration : 1h 23mn
Bit rate : 46 bps
Count of elements : 871
Stream size : 28.6 KiB (0%)
Title : Full
Language : English
Default : No
Forced : No

Menu
00:00:00.000 : en:00:00:00.000
00:03:45.267 : en:00:03:45.267
00:08:34.055 : en:00:08:34.055
00:14:45.885 : en:00:14:45.885
00:20:36.777 : en:00:20:36.777
00:24:47.903 : en:00:24:47.903
00:28:59.404 : en:00:28:59.404
00:35:30.837 : en:00:35:30.837
00:40:10.450 : en:00:40:10.450
00:46:11.435 : en:00:46:11.435
00:49:48.027 : en:00:49:48.027
00:54:08.287 : en:00:54:08.287
01:00:37.759 : en:01:00:37.759
01:08:27.895 : en:01:08:27.895
01:11:43.007 : en:01:11:43.007
01:19:43.487 : en:01:19:43.487
01:23:59.826 : en:01:23:59.826

x265 [info]: HEVC encoder version 2.3+27-7e137e3ae083
x265 [info]: build info [Windows][GCC 5.3.1][64 bit] 10bit
x265 [info]: using cpu capabilities: MMX2 SSE2Fast SSSE3 SSE4.2 AVX AVX2 FMA3 LZCNT BMI2
x265 [info]: Main 10 profile, Level-4 (Main tier)
x265 [info]: Thread pool created using 4 threads
x265 [info]: Slices : 1
x265 [info]: frame threads / pool features : 2 / wpp(13 rows)
x265 [info]: Coding QT: max CU size, min CU size : 64 / 8
x265 [info]: Residual QT: max TU size, max depth : 32 / 4 inter / 4 intra
x265 [info]: ME / range / subpel / merge : star / 57 / 5 / 3
x265 [info]: Keyframe min / max / scenecut / bias: 23 / 250 / 40 / 5.00
x265 [info]: Lookahead / bframes / badapt : 60 / 10 / 2
x265 [info]: b-pyramid / weightp / weightb : 1 / 1 / 1
x265 [info]: References / ref-limit cu / depth : 4 / on / on
x265 [info]: AQ: mode / str / qg-size / cu-tree : 1 / 0.3 / 32 / 1
x265 [info]: Rate Control / qCompress : CRF-20.0 / 0.80
x265 [info]: tools: rd=4 psy-rd=1.00 rdoq=2 psy-rdoq=1.00 rskip limit-tu=4
x265 [info]: tools: signhide tmvp b-intra strong-intra-smoothing
x265 [info]: tools: deblock(tC=-3:B=-3)
x265 [info]: frame I: 1570, Avg QP:19.73 kb/s: 25531.21
x265 [info]: frame P: 23268, Avg QP:20.87 kb/s: 11910.40
x265 [info]: frame B: 102626, Avg QP:24.14 kb/s: 3660.03
x265 [info]: Weighted P-Frames: Y:4.6% UV:3.6%
x265 [info]: Weighted B-Frames: Y:5.4% UV:4.1%
x265 [info]: consecutive B-frames: 10.9% 4.7% 8.4% 20.9% 9.9% 21.0% 6.4% 7.4% 3.4% 3.5% 3.5%

encoded 127464 frames in 138831.21s (0.92 fps), 5435.49 kb/s, Avg QP:23.49



Скачать Суррогаты.Surrogates.(Джонатан.Мостоу).[2009.фантастика.боевик.триллер.BDRip-HEVC].[1080p].[Dub]+[Оригинал]+[Sub]x3.torrent без регистрации
Золото ЗОЛОТАЯ РАЗДАЧА! СКАЧАННОЕ НЕ ЗАСЧИТЫВАЕТСЯ! Золото
Дата: Зарегистрирован   [ Тип: внутренний ] Как тут cкачать?
MAGNET ссылка
MAGNET ссылка


Скачать .torrent

21 KB

Статус: проверено DHT
Скачан: торрент - 42 раз, раздача полностью - 8 раз
Размер: 3,96 GB
Оценка:  - (Голосов: 0)
Поблагодарили: 2
Поделиться ссылкой на эту раздачу с друзьями:
В контактеFacebookОдноклассникиTwitterLivejournalМой МирLiveinternet
 

 
Показать сообщения:    


Вы не можете начинать темы
Вы не можете отвечать на сообщения
Вы не можете редактировать свои сообщения
Вы не можете удалять свои сообщения
Вы не можете голосовать в опросах
Вы не можете прикреплять файлы к сообщениям
Вы можете скачивать файлы