Loading...
Error

Скачать Уличный боец / Street Fighter: The Legend Of Chun-Li (Анджей Бартковяк) [2009, боевик, триллер, драма, криминал, детектив, BDRip] [1080p] [MVO]+[DVO]+[Eng]+[Sub]x2 торрент без регистрации

Статистика раздачи
Размер:  9,72 GB   |    Скачан:  40 раз
Сидов:  1  [  0 KB/s  ]  
 
 
 
Автор Сообщение

Marsianka

[] 

Название: Уличный боец
Оригинальное название: Street Fighter: The Legend of Chun-Li
Год выхода: 2009

Страна: США, Канада
Студия: Hyde Park Entertainment, Capcom Company, Adlabs Films
Продолжительность: 01:36:35
Жанр: боевик, триллер, драма, криминал, детектив

Режиссер: Анджей Бартковяк
В ролях: Кристин Крук, Крис Клейн, Нил МакДонаф, Робин Шоу, Мун Бладгуд, Джози Хо, Табу, Майкл Кларк Дункан, Пеи-пеи Ченг, Эдмунд Чэнь, ...

Перевод:
- Профессиональный (многоголосый, закадровый) студия Лексикон BD CEE от «Парадиз»
- Профессиональный (двуголосый, закадровый) ?
- Субтитры

О фильме: Прекрасная Чун-Ли, владеющая искусством восточных единоборств, поклялась отомстить… Планомерно, одного за другим она убивает главарей преступных группировок, виновных в гибели своего отца…



Кодек: x264
Качество: BDRip 1080p
Видео: 1920x816, 12000 kbps, 23,976 fps
Аудио #1: AC-3, 6 ch, 640 kbps (Rus) - MVO студия Лексикон BD CEE «Парадиз»
Аудио #2: AC-3, 6 ch, 448 kbps (Rus) - DVO
Аудио #3: DTS, 6 ch, 1344 kbps (Eng)
Субтитры: Русские, Английские
За исходник спасибо - am@zon

Сравнение какого то "Европейца" и нашего от «Парадиз» :


x264 [info]: frame I:857 Avg QP:18.24 size:238293
x264 [info]: frame P:33461 Avg QP:20.21 size:102759
x264 [info]: frame B:104642 Avg QP:22.65 size: 48104
x264 [info]: consecutive B-frames: 3.0% 5.9% 9.7% 24.5% 15.3% 24.8% 6.4% 8.0% 1.0% 0.3% 0.2% 0.7% 0.1%

Общее
Уникальный идентификатор : 217180119309780349921550841569840320348 (0xA3635E983C4BBE6C8D33CB994CBDCF5C)
Полное имя : Уличный боец (RUS Street Fighter The Legend of Chun-Li) 2009 BDRip 1080p.mkv
Формат : Matroska
Версия формата : Version 2
Размер файла : 9,72 Гбайт
Продолжительность : 1 ч. 36 м.
Общий поток : 14,4 Мбит/сек
Дата кодирования : UTC 2017-08-22 10:24:49
Программа кодирования : mkvmerge v4.0.0 ('The Stars were mine') сборка от Jun 6 2010 16:18:42
Библиотека кодирования : libebml v1.0.0 + libmatroska v1.0.0

Видео
Идентификатор : 1
Формат : AVC
Формат/Информация : Advanced Video Codec
Профиль формата : High@L4.1
Параметр CABAC формата : Да
Параметр ReFrames формата : 5 кадров
Идентификатор кодека : V_MPEG4/ISO/AVC
Продолжительность : 1 ч. 36 м.
Битрейт : 12,0 Мбит/сек
Ширина : 1920 пикселей
Высота : 816 пикселей
Соотношение сторон : 2,35:1
Режим частоты кадров : Постоянный
Частота кадров : 23,976 (24000/1001) кадра/сек
Цветовое пространство : YUV
Субдискретизация насыщенности : 4:2:0
Битовая глубина : 8 бит
Тип развёртки : Прогрессивная
Бит/(Пиксели*Кадры) : 0.319
Размер потока : 7,89 Гбайт (81%)
Библиотека кодирования : x264 core 146 r2538 121396c
Настройки программы : cabac=1 / ref=5 / deblock=1:-2:-2 / analyse=0x3:0x133 / me=umh / subme=11 / psy=1 / psy_rd=1.00:0.00 / mixed_ref=1 / me_range=32 / chroma_me=1 / trellis=2 / 8x8dct=1 / cqm=0 / deadzone=21,11 / fast_pskip=0 / chroma_qp_offset=-2 / threads=12 / lookahead_threads=2 / sliced_threads=0 / nr=0 / decimate=0 / interlaced=0 / bluray_compat=0 / constrained_intra=0 / bframes=12 / b_pyramid=2 / b_adapt=2 / b_bias=0 / direct=3 / weightb=1 / open_gop=0 / weightp=2 / keyint=240 / keyint_min=23 / scenecut=40 / intra_refresh=0 / rc=2pass / mbtree=0 / bitrate=12000 / ratetol=1.0 / qcomp=0.60 / qpmin=0 / qpmax=69 / qpstep=4 / cplxblur=20.0 / qblur=0.5 / ip_ratio=1.40 / pb_ratio=1.30 / aq=3:0.80
Язык : English
Default : Нет
Forced : Нет

Аудио #1
Идентификатор : 2
Формат : AC-3
Формат/Информация : Audio Coding 3
Расширение режима : CM (complete main)
Параметр Endianness формата : Big
Идентификатор кодека : A_AC3
Продолжительность : 1 ч. 36 м.
Вид битрейта : Постоянный
Битрейт : 640 Кбит/сек
Каналы : 6 каналов
Расположение каналов : Front: L C R, Side: L R, LFE
Частота : 48,0 КГц
Частота кадров : 31,250 кадров/сек (1536 spf)
Метод сжатия : С потерями
Размер потока : 442 Мбайт (4%)
Заголовок : MVO студия Лексикон BD «Парадиз»
Язык : Russian
Default : Нет
Forced : Нет

Аудио #2
Идентификатор : 3
Формат : AC-3
Формат/Информация : Audio Coding 3
Расширение режима : CM (complete main)
Параметр Endianness формата : Big
Идентификатор кодека : A_AC3
Продолжительность : 1 ч. 36 м.
Вид битрейта : Постоянный
Битрейт : 448 Кбит/сек
Каналы : 6 каналов
Расположение каналов : Front: L C R, Side: L R, LFE
Частота : 48,0 КГц
Частота кадров : 31,250 кадров/сек (1536 spf)
Метод сжатия : С потерями
Размер потока : 310 Мбайт (3%)
Заголовок : DVO
Язык : Russian
Default : Нет
Forced : Нет

Аудио #3
Идентификатор : 4
Формат : DTS
Формат/Информация : Digital Theater Systems
Режим : 16
Параметр Endianness формата : Big
Идентификатор кодека : A_DTS
Продолжительность : 1 ч. 36 м.
Вид битрейта : Постоянный
Битрейт : 1344 Кбит/сек
Каналы : 6 каналов
Расположение каналов : Front: L C R, Side: L R, LFE
Частота : 48,0 КГц
Частота кадров : 93,750 кадра/сек (512 spf)
Битовая глубина : 16 бит
Метод сжатия : С потерями
Размер потока : 929 Мбайт (9%)
Язык : English
Default : Нет
Forced : Нет

Текст #1
Идентификатор : 5
Формат : UTF-8
Идентификатор кодека : S_TEXT/UTF8
Идентификатор кодека/Информация : UTF-8 Plain Text
Язык : Russian
Default : Нет
Forced : Нет

Текст #2
Идентификатор : 6
Формат : UTF-8
Идентификатор кодека : S_TEXT/UTF8
Идентификатор кодека/Информация : UTF-8 Plain Text
Язык : English
Default : Нет
Forced : Нет



Скачать Уличный.боец.Street.Fighter.The.Legend.Of.Chun-Li.(Анджей.Бартковяк).[2009.боевик.триллер.драма.криминал.детектив.BDRip].[1080p].[MVO]+[DVO]+[Eng]+[Sub]x2.torrent без регистрации
Золото ЗОЛОТАЯ РАЗДАЧА! СКАЧАННОЕ НЕ ЗАСЧИТЫВАЕТСЯ! Золото
Дата: Зарегистрирован   [ Тип: внутренний ] Как тут cкачать?
MAGNET ссылка
MAGNET ссылка


Скачать .torrent

50 KB

Статус: проверено DHT
Скачан: торрент - 40 раз, раздача полностью - 3 раз
Размер: 9,72 GB
Оценка:  - (Голосов: 0)
Поблагодарили: 1
Поделиться ссылкой на эту раздачу с друзьями:
В контактеFacebookОдноклассникиTwitterLivejournalМой МирLiveinternet
 

 
Показать сообщения:    


Вы не можете начинать темы
Вы не можете отвечать на сообщения
Вы не можете редактировать свои сообщения
Вы не можете удалять свои сообщения
Вы не можете голосовать в опросах
Вы не можете прикреплять файлы к сообщениям
Вы можете скачивать файлы