Loading...
Error

Скачать Судья Дредд 3D / Dredd 3D (Пит Трэвис) [2012, экшн, криминал, фантастика, BDRip] [720p] [DUB] [R.G. GoldenShara] торрент без регистрации

Статистика раздачи
Размер:  2,2 GB   |    Скачан:  80 раз

Полного источника не было: 1 месяц 16 дней

 
 
 
Автор Сообщение

netesov1977

[] 


Судья Дредд 3D / Dredd 3D


Год выпуска: 2012
Выпущено: Великобритания, США, Индия, ЮАР
Жанр: экшн, криминал, фантастика
Продолжительность: 01:35:36
Перевод: Профессиональный (полное дублирование)
Субтитры: русские, английские
Режиссер: Пит Трэвис

В ролях: Карл Урбан, Оливия Тирлби, Лина Хиди, Вуд Харрис, Рэйчел Вуд, Андил Мнгади, Портес Ксандо Стинкамп, Джейсон Коуп, Эмма Бреши, Рэки Айола

Описание: Будущее не столь красочно и великолепно, каким его представляют современные люди. Через несколько столетий человечество окажется на грани самоуничтожения, захлёбываясь в кровавых преступлениях, смертельных грехах и беспорядочных убийствах. Старую систему правосудия будет невозможно использовать — анархия, всеобщие беспорядки вынуждают ещё сохранившуюся власть, тем не менее, потерявшую всякий авторитет и легитимность, пойти на отчаянные крайние меры и ввести институт Судей — универсальных полицейских, правоприменителей, а по совместительству — и прокуроров, которые упростили бы весь процесс задержания, следствия и судебных тяжб, совмещая в одном лице все должности блюстителей и защитников правопорядка.

Негодяи, подонки, вконец обнаглевшие и распоясавшиеся преступники и бандитские группировки всё равно не желают сдавать свои упрочившие позиции, опасаясь лишь одного — встречи с легендарным Судьёй Дреддом, пересажавшим или расстрелявшим не одну сотню насильников, террористов и жадных до человеческих страданий маньяков. В то время, как беспорядки и бесчинства бушуют на улицах города, Дредд спешит вернуть порядок, Закон и тишину, которым, кажется, уже никогда не обрести свою былую полноту, мощь и силу…







Качество: BDRip 720p
Формат: MKV
Видео кодек: H.264
Аудио кодек: AC3
Видео: 1280x536 (2.40:1), 2844 kbps, 23.976 fps
Аудио: Русский (AC-3, 6ch, 448 kbps)

x264 [info]: frame I:1247 Avg QP:17.32 size:106549
x264 [info]: frame P:32486 Avg QP:19.03 size: 36441
x264 [info]: frame B:103797 Avg QP:22.60 size: 6963
x264 [info]: consecutive B-frames: 3.4% 3.3% 13.3% 17.3% 14.6% 42.5% 3.0% 0.6% 2.0%
x264 [total]: encoded 137530 frames, 5.05 fps, 2844.35 kb/s
General
Unique ID : 187927588027213324114278886257346045600 (0x8D618973507B58DE9436701587E166A0)
Complete name : F:\ФИЛЬМЫ\СУДЬЯ ДРЕДД---\Судья.Дредд.3D.2012.x264.BDRip.720p.DUB.mkv
Format : Matroska
Format version : Version 4 / Version 2
File size : 2.20 GiB
Duration : 1 h 35 min
Overall bit rate : 3 294 kb/s
Movie name : Судья Дредд / Dredd (2012) - #LORDKILL#
Encoded date : UTC 2017-08-08 13:56:02
Writing application : mkvmerge v9.5.0 ('Quiet Fire') 64bit
Writing library : libebml v1.3.4 + libmatroska v1.4.5
Attachments : poster.jpg

Video
ID : 1
Format : AVC
Format/Info : Advanced Video Codec
Format profile : High@L4.1
Format settings, CABAC : Yes
Format settings, ReFrames : 11 frames
Codec ID : V_MPEG4/ISO/AVC
Duration : 1 h 35 min
Bit rate : 2 844 kb/s
Width : 1 280 pixels
Height : 536 pixels
Display aspect ratio : 2.40:1
Frame rate mode : Constant
Frame rate : 23.976 (24000/1001) FPS
Color space : YUV
Chroma subsampling : 4:2:0
Bit depth : 8 bits
Scan type : Progressive
Bits/(Pixel*Frame) : 0.173
Stream size : 1.90 GiB (86%)
Writing library : x264 core 146 r2538 121396c
Encoding settings : cabac=1 / ref=11 / deblock=1:-3:-3 / analyse=0x3:0x113 / me=umh / subme=11 / psy=1 / psy_rd=1.00:0.10 / mixed_ref=1 / me_range=64 / chroma_me=1 / trellis=2 / 8x8dct=1 / cqm=0 / deadzone=21,11 / fast_pskip=0 / chroma_qp_offset=-3 / threads=12 / lookahead_threads=2 / sliced_threads=0 / nr=0 / decimate=1 / interlaced=0 / bluray_compat=0 / constrained_intra=0 / bframes=8 / b_pyramid=2 / b_adapt=2 / b_bias=0 / direct=1 / weightb=1 / open_gop=0 / weightp=2 / keyint=240 / keyint_min=23 / scenecut=40 / intra_refresh=0 / rc=crf / mbtree=0 / crf=19.5 / qcomp=0.60 / qpmin=0 / qpmax=69 / qpstep=4 / ip_ratio=1.40 / pb_ratio=1.30 / aq=1:1.00
Language : English
Default : Yes
Forced : No

Audio
ID : 2
Format : AC-3
Format/Info : Audio Coding 3
Mode extension : CM (complete main)
Format settings, Endianness : Big
Codec ID : A_AC3
Duration : 1 h 35 min
Bit rate mode : Constant
Bit rate : 448 kb/s
Channel(s) : 6 channels
Channel positions : Front: L C R, Side: L R, LFE
Sampling rate : 48.0 kHz
Frame rate : 31.250 FPS (1536 spf)
Bit depth : 16 bits
Compression mode : Lossy
Stream size : 306 MiB (14%)
Title : Дубляж
Language : Russian
Default : Yes
Forced : No

Text #1
ID : 3
Format : UTF-8
Codec ID : S_TEXT/UTF8
Codec ID/Info : UTF-8 Plain Text
Duration : 1 h 28 min
Bit rate : 69 b/s
Count of elements : 733
Stream size : 45.2 KiB (0%)
Title : Blu-ray
Language : Russian
Default : No
Forced : No

Text #2
ID : 4
Format : UTF-8
Codec ID : S_TEXT/UTF8
Codec ID/Info : UTF-8 Plain Text
Duration : 1 h 28 min
Bit rate : 42 b/s
Count of elements : 754
Stream size : 27.3 KiB (0%)
Title : full
Language : English
Default : No
Forced : No

Menu
00:00:00.000 : :Chapter 01
00:13:33.854 : :Chapter 02
00:26:33.341 : :Chapter 03
00:39:32.661 : :Chapter 04
00:51:02.267 : :Chapter 05
01:04:03.881 : :Chapter 06
01:18:01.385 : :Chapter 07
01:29:53.679 : :Chapter 08





Скачать Судья.Дредд.3D.Dredd.3D.(Пит.Трэвис).[2012.экшн.криминал.фантастика.BDRip].[720p].[DUB].[R.G.GoldenShara].torrent без регистрации
Золото ЗОЛОТАЯ РАЗДАЧА! СКАЧАННОЕ НЕ ЗАСЧИТЫВАЕТСЯ! Золото
Дата: Зарегистрирован   [ Тип: внутренний ] Как тут cкачать?
MAGNET ссылка
MAGNET ссылка


Скачать .torrent

12 KB

Статус: проверено
Скачан: торрент - 80 раз, раздача полностью - 43 раз
Размер: 2,2 GB
Оценка:  5 (Голосов: 3)
Поблагодарили: 7
Поделиться ссылкой на эту раздачу с друзьями:
В контактеFacebookОдноклассникиTwitterLivejournalМой МирLiveinternet
 

 

k.i.n.o.m.a.n

[] 

Поменяете звук, когда выйдет???
 

netesov1977

[] 

k.i.n.o.m.a.n
Дредда поменяю обязательно.
 

LORDKILL

[] 

Торрент обновлён! Рип полностью переделан!
 

Hellboy200

[] 

Зачем менять звук ab
 
Показать сообщения:    


Вы не можете начинать темы
Вы не можете отвечать на сообщения
Вы не можете редактировать свои сообщения
Вы не можете удалять свои сообщения
Вы не можете голосовать в опросах
Вы не можете прикреплять файлы к сообщениям
Вы можете скачивать файлы