Loading...
Error

Скачать Аватар / Avatar (Джеймс Кэмерон) [2009, фантастика, боевик, драма, приключения, BDRip] [1080p] [Neofilm] [Extended Cut] торрент без регистрации

Статистика раздачи
Размер:  7,95 GB   |    Скачан:  466 раз
Сидов:  1  [  0 KB/s  ]  
 
 
 
Автор Сообщение

МихаНЕзатор

[] 

Информация о фильме
Название: Аватар
Оригинальное название: Avatar [Extended Cut]
Год выхода: 2009
Жанр: фантастика, боевик, драма, приключения
Режиссер: Джеймс Кэмерон
В ролях: Сэм Уортингтон, Зои Салдана, Сигурни Уивер, Стивен Лэнг, Мишель Родригес, Джованни Рибизи, Джоэль Мур, Си Си Эйч Паундер, Уэс Студи, Лас Алонсо

О фильме:
Джейк Салли - бывший морской пехотинец, прикованный к инвалидному креслу. Несмотря на немощное тело, Джейк в душе по-прежнему остается воином. Он получает задание совершить путешествие в несколько световых лет к базе землян на планете Пандора, где корпорации добывают редкий минерал, имеющий огромное значение для выхода Земли из энергетического кризиса.


Страна: США, Великобритания
Продолжительность: 02:58:09
Перевод: Дублированный

Файл
Кодек: x.264
Качество: BDRip 1080p
Видео: 6004 kb/s (VBR), 1920x1080, 23.976 fps
Звук: AC3, 384 kb/s (6Ch)
Субтитры: Русские ass (Нави диалоги и пр), Русские ass (полные), Английские ass (Нави диалоги и пр), Английские ass (полные), Английские srt (полные SDH)
Чаптеры: 42 шт.

Релиз от:

General
Format : Matroska
File size : 7.95 GiB
Duration : 2h 58mn
Overall bit rate : 6 389 Kbps
Movie name : Avatar.2009.Extended.Collectors.Cut.1080p.Blu-ray.AVC
Encoded date : UTC 2011-07-21 15:46:27
Writing application : mkvmerge v3.3.0 ('Language') built on Mar 24 2010 14:59:24
Writing library : libebml v0.8.0 + libmatroska v0.9.0
Attachment : Yes / Yes

Video
ID : 1
Format : AVC
Format/Info : Advanced Video Codec
Format profile : High@L4.1
Format settings, CABAC : Yes
Format settings, ReFrames : 4 frames
Codec ID : V_MPEG4/ISO/AVC
Duration : 2h 58mn
Bit rate : 6 004 Kbps
Width : 1 920 pixels
Height : 1 080 pixels
Display aspect ratio : 16:9
Frame rate : 23.976 fps
Color space : YUV
Chroma subsampling : 4:2:0
Bit depth : 8 bits
Scan type : Progressive
Bits/(Pixel*Frame) : 0.121
Stream size : 7.31 GiB (92%)
Title : Аватар / Avatar [Extended Collector's Edition] (2009) 1080p BDRip
Writing library : x264 core 115 r1995 c1e60b9
Encoding settings : cabac=1 / ref=4 / deblock=1:-3:-3 / analyse=0x3:0x113 / me=umh / subme=10 / psy=1 / psy_rd=0.85:0.00 / mixed_ref=1 / me_range=32 / chroma_me=1 / trellis=2 / 8x8dct=1 / cqm=0 / deadzone=21,11 / fast_pskip=0 / chroma_qp_offset=-2 / threads=6 / sliced_threads=0 / nr=0 / decimate=0 / interlaced=0 / bluray_compat=0 / constrained_intra=0 / bframes=3 / b_pyramid=2 / b_adapt=2 / b_bias=0 / direct=3 / weightb=1 / open_gop=0 / weightp=2 / keyint=250 / keyint_min=23 / scenecut=40 / intra_refresh=0 / rc_lookahead=60 / rc=2pass / mbtree=1 / bitrate=6004 / ratetol=1.0 / qcomp=0.60 / qpmin=10 / qpmax=51 / qpstep=4 / cplxblur=20.0 / qblur=0.5 / vbv_maxrate=40000 / vbv_bufsize=40000 / nal_hrd=none / ip_ratio=1.40 / aq=1:1.00
Language : English

Audio
ID : 2
Format : AC-3
Format/Info : Audio Coding 3
Mode extension : CM (complete main)
Codec ID : A_AC3
Duration : 2h 58mn
Bit rate mode : Constant
Bit rate : 384 Kbps
Channel(s) : 6 channels
Channel positions : Front: L C R, Side: L R, LFE
Sampling rate : 48.0 KHz
Bit depth : 16 bits
Compression mode : Lossy
Stream size : 489 MiB (6%)
Language : Russian

Text #1
ID : 3
Format : ASS
Codec ID : S_TEXT/ASS
Codec ID/Info : Advanced Sub Station Alpha
Compression mode : Lossless
Title : Forced
Language : Russian

Text #2
ID : 4
Format : ASS
Codec ID : S_TEXT/ASS
Codec ID/Info : Advanced Sub Station Alpha
Compression mode : Lossless
Title : Full
Language : Russian

Text #3
ID : 5
Format : ASS
Codec ID : S_TEXT/ASS
Codec ID/Info : Advanced Sub Station Alpha
Compression mode : Lossless
Title : Forced
Language : English

Text #4
ID : 6
Format : ASS
Codec ID : S_TEXT/ASS
Codec ID/Info : Advanced Sub Station Alpha
Compression mode : Lossless
Title : Full
Language : English

Text #5
ID : 7
Format : UTF-8
Codec ID : S_TEXT/UTF8
Codec ID/Info : UTF-8 Plain Text
Title : SDH
Language : English

Menu
00:00:00.000 : en:Lost Soul
00:05:25.575 : en:A New World
00:10:12.278 : en:You Are Not In Kansas Anymore
00:11:47.915 : en:"This Is Your Avatar Now, Jake ."
00:15:59.208 : en:"This Is Why We're Here..."
00:17:54.782 : en:First Awakening
00:23:54.891 : en:Colonel Quaritch
00:27:54.547 : en:First Sortie
00:30:27.617 : en:Abandoned Schoolhouse
00:32:27.904 : en:Thanator Chase
00:37:16.525 : en:A Sign
00:39:08.053 : en:Viperwolves
00:41:18.475 : en:Neytiri
00:49:16.912 : en:The Omaticaya Clan
00:55:42.213 : en:Cover Report
01:01:09.415 : en:The Hallelujah Mountains
01:07:03.227 : en:Learn Fast Or Die
01:11:50.222 : en:A Mother's Pain
01:15:53.799 : en:Banshee Rookery
01:22:38.119 : en:First Flight
01:26:12.709 : en:Clan Hunt
01:27:42.298 : en:Last Shadow
01:33:00.407 : en:A Son Of the Omaticaya
01:37:36.892 : en:Willow Glade Destruction
01:44:15.290 : en:Conflict Escalation
01:50:02.595 : en:"You Will Never Be One Of The People!"
01:51:53.581 : en:Assault On Hometree
01:58:30.895 : en:Aftermath
02:02:13.284 : en:Escape From Hell's Gate
02:07:51.663 : en:There's Something We Gotta Do..."
02:09:30.554 : en:Toruk Macto
02:12:36.615 : en:"She's Real"
02:16:03.363 : en:Recruiting The Clans
02:19:31.654 : en:Preamble To Battle
02:23:59.630 : en:Battle For Pandora
02:30:05.079 : en:Fall Of The Heroes
02:33:56.852 : en:Eywa
02:40:02.259 : en:Quartich Fight
02:45:33.214 : en:"I See You"
02:46:48.498 : en:My Brother
02:48:56.793 : en:Transformation
02:51:32.073 : en:End Credits



Скачать Аватар.Avatar.(Джеймс.Кэмерон).[2009.фантастика.боевик.драма.приключения.BDRip].[1080p].[Neofilm].[Extended.Cut].torrent без регистрации
Золото ЗОЛОТАЯ РАЗДАЧА! СКАЧАННОЕ НЕ ЗАСЧИТЫВАЕТСЯ! Золото
Дата: Зарегистрирован   [ Тип: внутренний ] Как тут cкачать?
MAGNET ссылка
MAGNET ссылка


Скачать .torrent

160 KB

Статус: проверено DHT
Скачан: торрент - 466 раз, раздача полностью - 1402 раз
Размер: 7,95 GB
Оценка:  5 (Голосов: 8)
Поблагодарили: 15
Поделиться ссылкой на эту раздачу с друзьями:
В контактеFacebookОдноклассникиTwitterLivejournalМой МирLiveinternet
 

 

torch3100

[] 

Дайте скорости пожалуйста ah
 
Показать сообщения:    


Вы не можете начинать темы
Вы не можете отвечать на сообщения
Вы не можете редактировать свои сообщения
Вы не можете удалять свои сообщения
Вы не можете голосовать в опросах
Вы не можете прикреплять файлы к сообщениям
Вы можете скачивать файлы