Loading...
Error

Скачать Акты насилия / Acts of Violence (Бретт Доноху) [2018, боевик, драма, WEB-DL] [1080p] [MVO (HDrezka Studio)]+[Eng] торрент без регистрации

Статистика раздачи
Размер:  11,11 GB   |    Скачан:  155 раз
Сидов:  14  [  0 KB/s  ]   Личеров:  1  [  0 KB/s  ]  
 
 
 
Автор Сообщение

МихаНЕзатор

[] 

Информация о фильме
Название: Акты насилия
Оригинальное название: Acts of Violence
Год выхода: 2018
Жанр: Боевик, драма
Режиссер: Бретт Доноху

В ролях: Брюс Уиллис, Коул Хаузер, Шон Эшмор, Эштон Холмс, Мелисса Болона, Шон Броснан, София Буш, Майк Эппс, Тиффани Броувер, Дженна Б. Келли

О фильме: Чтобы спасти свою невесту, которая попала в лапы торговцев людьми, Роман должен вспомнить свои военные навыки и объединить усилия с бывшими сослуживцами и жёстким полицейским, расследующим подобные дела.

Релиз от:
Silverok

Страна: Великобритания, США
Студия: Colecar Productions, Emmett/Furla Films, River Bay Films
Продолжительность: 01:26:51
Перевод: Любительский многоголосый

Файл
Кодек: h.264
Качество: BDRip 1080p
Видео: MPEG-4 AVC, 16.4 Mбит/с, 1920x800, 23,976 кадр/с
Звук:
Русский (AC3, 2 ch, 384 Кбит/с) / Любительский многоголосый [HDrezka Studio]
Английский (DTS, 6 ch, 1509 Кбит/с)
Субтитры: Нет

Торрент обновлён, улучшен видеоряд и звук!
General
Unique ID : 116933885883265518094010938560884136585 (0x57F8A5B11A2568269D2B5E793B525A89)
Complete name : D:uTorrentAkty.nasilija.2018.BDRip.1080p.MediaClub.mkv
Format : Matroska
Format version : Version 4 / Version 2
File size : 11.1 GiB
Duration : 1 h 26 min
Overall bit rate : 18.3 Mb/s
Encoded date : UTC 2018-03-16 17:49:41
Writing application : mkvmerge v19.0.0 ('Brave Captain') 64-bit
Writing library : libebml v1.3.5 + libmatroska v1.4.8
Cover : Yes
Attachments : cover.jpg

Video
ID : 1
Format : AVC
Format/Info : Advanced Video Codec
Format profile : High@L4.1
Format settings : CABAC / 5 Ref Frames
Format settings, CABAC : Yes
Format settings, RefFrames : 5 frames
Codec ID : V_MPEG4/ISO/AVC
Duration : 1 h 26 min
Bit rate : 16.4 Mb/s
Width : 1 920 pixels
Height : 800 pixels
Display aspect ratio : 2.40:1
Frame rate mode : Constant
Frame rate : 23.976 (24000/1001) FPS
Color space : YUV
Chroma subsampling : 4:2:0
Bit depth : 8 bits
Scan type : Progressive
Bits/(Pixel*Frame) : 0.446
Stream size : 9.96 GiB (90%)
Title : BDRip by Silverok
Writing library : x264 core 148 r2744kMod b97ae06
Encoding settings : cabac=1 / ref=5 / deblock=1:-3:-3 / analyse=0x3:0x133 / me=umh / subme=11 / psy=1 / fade_compensate=0.00 / psy_rd=1.10:0.00 / mixed_ref=1 / me_range=48 / chroma_me=1 / trellis=2 / 8x8dct=1 / cqm=0 / deadzone=21,11 / fast_pskip=0 / chroma_qp_offset=-2 / threads=12 / lookahead_threads=2 / sliced_threads=0 / nr=0 / decimate=0 / interlaced=0 / bluray_compat=0 / constrained_intra=0 / bframes=8 / b_pyramid=2 / b_adapt=2 / b_bias=0 / direct=3 / weightb=1 / open_gop=0 / weightp=2 / keyint=240 / keyint_min=2 / scenecut=40 / intra_refresh=0 / rc=crf / mbtree=0 / crf=18.0000 / qcomp=0.70 / qpmin=0 / qpmax=69 / qpstep=4 / ip_ratio=1.25 / pb_ratio=1.20 / aq=3:0.80
Default : Yes
Forced : No

Audio #1
ID : 2
Format : AC-3
Format/Info : Audio Coding 3
Codec ID : A_AC3
Duration : 1 h 26 min
Bit rate mode : Constant
Bit rate : 384 kb/s
Channel(s) : 2 channels
Channel positions : Front: L R
Sampling rate : 48.0 kHz
Frame rate : 31.250 FPS (1536 SPF)
Bit depth : 16 bits
Compression mode : Lossy
Stream size : 238 MiB (2%)
Title : Любительский многоголосый [HDrezka Studio]
Language : Russian
Service kind : Complete Main
Default : Yes
Forced : No

Audio #2
ID : 3
Format : DTS
Format/Info : Digital Theater Systems
Codec ID : A_DTS
Duration : 1 h 26 min
Bit rate mode : Constant
Bit rate : 1 509 kb/s
Channel(s) : 6 channels
Channel positions : Front: L C R, Side: L R, LFE
Sampling rate : 48.0 kHz
Frame rate : 93.750 FPS (512 SPF)
Bit depth : 24 bits
Compression mode : Lossy
Stream size : 937 MiB (8%)
Language : English
Default : No
Forced : No



Скачать Акты.насилия.Acts.of.Violence.(Бретт.Доноху).[2018.боевик.драма.WEB-DL].[1080p].[MVO.(HDrezka.Studio)]+[Eng].torrent без регистрации
Золото ЗОЛОТАЯ РАЗДАЧА! СКАЧАННОЕ НЕ ЗАСЧИТЫВАЕТСЯ! Золото
Дата: Зарегистрирован   [ Тип: внешний ] Как тут cкачать?
MAGNET ссылка
MAGNET ссылка


Скачать .torrent

29 KB

Статус: проверено DHT
Скачан: торрент - 155 раз, раздача полностью - 51 раз
Размер: 11,11 GB
Оценка:  5 (Голосов: 1)
Поблагодарили: 7
Поделиться ссылкой на эту раздачу с друзьями:
В контактеFacebookОдноклассникиTwitterLivejournalМой МирLiveinternet
 

 
Показать сообщения:    


Вы не можете начинать темы
Вы не можете отвечать на сообщения
Вы не можете редактировать свои сообщения
Вы не можете удалять свои сообщения
Вы не можете голосовать в опросах
Вы не можете прикреплять файлы к сообщениям
Вы можете скачивать файлы