Loading...
Error

Скачать Секс, вечеринки и ложь / Mentiras y gordas (Альфонсо Альбасете, Давид Менкес) [2009, драма, комедия, BDRemux] [1080p] [DVO (NLS)]+[Оригинал]x2+[Sub Rus] торрент без регистрации

Статистика раздачи
Размер:  19,75 GB   |    Скачан:  23 раза
Сидов:  1  [  0 KB/s  ]  
 
 
 
Автор Сообщение

Marsianka

[] 

Информация о фильме
Название: Секс, вечеринки и ложь
Оригинальное название: Mentiras y gordas
Год выхода: 2009
Жанр: драма, комедия
Режиссер: Альфонсо Альбасете, Давид Менкес
В ролях: Марио Касас, Ана де Армас, Йон Гонсалес, Уго Сильва, Ана Мария Польвороса, Алехо Саурас, Мариета Ороско, Мириам Джованелли, Дуна Хове, Макси Иглесиас

О фильме:
В фильме пересекаются линии нескольких людей, у которых разная жизнь, разные взгляды на вещи. Одна стала лесбиянкой, вторая «спит» с бывшим своей подруги, и другие изменения в своей жизни переживают главные герои.



Страна: Испания
Студия: Agrupacion de Cine 001 AIE, Castafiore Films, Tornasol Films
Продолжительность: 01:48:03
Перевод: профессиональный двухголосный, закадровый [NLS]

Файл
Кодек: H.264
Качество: BDRemux 1080p
Видео: MPEG-4 / AVC, 1920x1080 (16:9), 24 fps ~ 24.5 Mbps

AC3, 48 KHz, 2 ch ~ 192 Kb/s (русский)
AC3, 48 KHz, 6 ch ~ 448 Kb/s (испанский)
AC3, 48 KHz, 6 ch ~ 640 Kb/s (испанский кат.)
Субтитры: русские

Общее
Уникальный идентификатор : 194870614215264993689187708738655107966 (0x929AB71217DFA3D0A1ED3C4ADF8A3B7E)
Полное имя : Q:TorFMentiras.y.Gordas. 2009.BDRemux.1080p.mkv
Формат : Matroska
Версия формата : Version 2
Размер файла : 19,8 Гбайт
Продолжительность : 1 ч. 48 м.
Режим общего битрейта : Переменный
Общий поток : 26,2 Мбит/сек
Дата кодирования : UTC 2018-02-07 06:56:38
Программа кодирования : mkvmerge v5.4.0 ('Piper') built on Mar 10 2012 13:34:39
Библиотека кодирования : libebml v1.2.3 + libmatroska v1.3.0

Видео
Идентификатор : 1
Формат : AVC
Формат/Информация : Advanced Video Codec
Профиль формата : High@L4.1
Параметр CABAC формата : Да
Параметр ReFrames формата : 4 кадра
Параметр GOP формата : M=3, N=24
Идентификатор кодека : V_MPEG4/ISO/AVC
Продолжительность : 1 ч. 48 м.
Вид битрейта : Переменный
Битрейт : 24,4 Мбит/сек
Максимальный битрейт : 35,0 Мбит/сек
Ширина : 1920 пикселей
Высота : 1080 пикселей
Соотношение сторон : 16:9
Частота кадров : 24,000 кадра/сек
Стандарт вещания : NTSC
Цветовое пространство : YUV
Субдискретизация насыщенности : 4:2:0
Битовая глубина : 8 бит
Тип развёртки : Прогрессивная
Бит/(Пиксели*Кадры) : 0.490
Размер потока : 18,4 Гбайт (93%)
Язык : Spanish
Default : Да
Forced : Нет
Основные цвета : BT.709-5, BT.1361, IEC 61966-2-4, SMPTE RP177
Характеристики трансфера : BT.709-5, BT.1361
Коэффициенты матрицы : BT.709-5, BT.1361, IEC 61966-2-4 709, SMPTE RP177

Аудио #1
Идентификатор : 2
Формат : AC-3
Формат/Информация : Audio Coding 3
Расширение режима : CM (complete main)
Идентификатор кодека : A_AC3
Продолжительность : 1 ч. 48 м.
Вид битрейта : Постоянный
Битрейт : 192 Кбит/сек
Каналы : 2 канала
Расположение каналов : Front: L R
Частота : 48,0 КГц
Битовая глубина : 16 бит
Метод сжатия : С потерями
Размер потока : 148 Мбайт (1%)
Язык : Russian
Default : Да
Forced : Нет

Аудио #2
Идентификатор : 3
Формат : AC-3
Формат/Информация : Audio Coding 3
Расширение режима : CM (complete main)
Идентификатор кодека : A_AC3
Продолжительность : 1 ч. 48 м.
Вид битрейта : Постоянный
Битрейт : 448 Кбит/сек
Каналы : 6 каналов
Расположение каналов : Front: L C R, Side: L R, LFE
Частота : 48,0 КГц
Битовая глубина : 16 бит
Метод сжатия : С потерями
Размер потока : 346 Мбайт (2%)
Язык : Spanish
Default : Нет
Forced : Нет

Аудио #3
Идентификатор : 4
Формат : AC-3
Формат/Информация : Audio Coding 3
Расширение режима : CM (complete main)
Идентификатор кодека : A_AC3
Продолжительность : 1 ч. 48 м.
Вид битрейта : Постоянный
Битрейт : 640 Кбит/сек
Каналы : 6 каналов
Расположение каналов : Front: L C R, Side: L R, LFE
Частота : 48,0 КГц
Битовая глубина : 16 бит
Метод сжатия : С потерями
Размер потока : 495 Мбайт (2%)
Язык : Spanish
Default : Нет
Forced : Нет

Текст
Идентификатор : 5
Формат : UTF-8
Идентификатор кодека : S_TEXT/UTF8
Идентификатор кодека/Информация : UTF-8 Plain Text
Язык : Russian
Default : Да
Forced : Нет



Скачать Секс.вечеринки.и.ложь.Mentiras.y.gordas.(Альфонсо.Альбасете.Давид.Менкес).[2009.драма.комедия.BDRemux].[1080p].[DVO.(NLS)]+[Оригинал]x2+[Sub.Rus].torrent без регистрации
Золото ЗОЛОТАЯ РАЗДАЧА! СКАЧАННОЕ НЕ ЗАСЧИТЫВАЕТСЯ! Золото
Дата: Зарегистрирован   [ Тип: внутренний ] Как тут cкачать?
MAGNET ссылка
MAGNET ссылка


Скачать .torrent

100 KB

Статус: проверено DHT
Скачан: торрент - 23 раз, раздача полностью - 3 раз
Размер: 19,75 GB
Оценка:  - (Голосов: 0)
Поблагодарили: 0
Поделиться ссылкой на эту раздачу с друзьями:
В контактеFacebookОдноклассникиTwitterLivejournalМой МирLiveinternet
 

 
Показать сообщения:    


Вы не можете начинать темы
Вы не можете отвечать на сообщения
Вы не можете редактировать свои сообщения
Вы не можете удалять свои сообщения
Вы не можете голосовать в опросах
Вы не можете прикреплять файлы к сообщениям
Вы можете скачивать файлы