Loading...
Error

Скачать Дикий / Braven (Лин Одинг) [2018, боевик, приключения, BDRemux] [1080p] [Dub (лицензия iTunes)]+[Eng]+[Sub Rus, Eng] торрент без регистрации

Статистика раздачи
Размер:  15,72 GB   |    Скачан:  334 раза
Сидов:  1  [  237 KB/s  ]  
 
 
 
Автор Сообщение

МихаНЕзатор

[] 

Информация о фильме
Название: Дикий
Оригинальное название: Braven
Год выхода: 2018
Жанр: Боевик, приключения
Режиссер: Лин Одинг

В ролях: Джейсон Момоа, Занн МаКларнон, Гаррет Диллахант, Джилл Вагнер, Стивен Лэнг, Сала Бэйкер, Брендан Флетчер, Тич Грант, Джеймс Уорд, Фрейзер Айтчесон



О фильме: Лесник Джо Брейвен живет с семьей в горах на границе США и Канады. Однажды его тихую и размеренную жизнь нарушает опасная банда наркоторговцев, которая еще не знает, что эта часть лесной глуши занята. И занята не дикими животными, а сильным и бескомпромиссным человеком, ради семьи готовым на все…

Страна: Канада
Студия: Braven NL
Продолжительность: 01:33:36
Перевод: Дублированный | iTunes

Качество: BDRemux 1080p
Видео: MPEG-4 AVC, 1920x1080, 19.6 Mbit/s, 23.976 fps
Звук:
Аудио #01: 48 kHz, AC3, 5.1, 384 Kbps | Дублированный | iTunes | RUS |
Аудио #02: 48 kHz, DTS-HD MA, 5.1, 4039 Kbps | Оригинал | ENG |
Субтитры: Русские (full), английские

Торрент обновлён, улучшен видеоряд и звук, заменён перевод!
General
Unique ID : 194275114627808377885904789576779694720 (0x922806AC9868337FA3DD2428EEC20280)
Complete name : C:Video111Braven.2018.BDREMUX.1080p.ExKinoRay.mkv
Format : Matroska
Format version : Version 4 / Version 2
File size : 15.7 GiB
Duration : 1 h 33 min
Overall bit rate mode : Variable
Overall bit rate : 24.0 Mb/s
Movie name : Braven 2018 from ExKinoRay
Encoded date : UTC 2018-03-28 20:56:05
Writing application : mkvmerge v21.0.0 ('Tardigrades Will Inherit The Earth') 64-bit
Writing library : libebml v1.3.5 + libmatroska v1.4.8

Video
ID : 1
Format : AVC
Format/Info : Advanced Video Codec
Format profile : High@L4.1
Format settings : CABAC / 4 Ref Frames
Format settings, CABAC : Yes
Format settings, ReFrames : 4 frames
Codec ID : V_MPEG4/ISO/AVC
Duration : 1 h 33 min
Bit rate mode : Variable
Bit rate : 19.6 Mb/s
Maximum bit rate : 35.0 Mb/s
Width : 1 920 pixels
Height : 1 080 pixels
Display aspect ratio : 16:9
Frame rate mode : Constant
Frame rate : 23.976 (24000/1001) FPS
Standard : NTSC
Color space : YUV
Chroma subsampling : 4:2:0
Bit depth : 8 bits
Scan type : Progressive
Bits/(Pixel*Frame) : 0.395
Stream size : 12.8 GiB (82%)
Language : English
Default : Yes
Forced : No
Color range : Limited
Color primaries : BT.709
Transfer characteristics : BT.709
Matrix coefficients : BT.709

Audio #1
ID : 2
Format : AC-3
Format/Info : Audio Coding 3
Codec ID : A_AC3
Duration : 1 h 33 min
Bit rate mode : Constant
Bit rate : 384 kb/s
Channel(s) : 6 channels
Channel positions : Front: L C R, Side: L R, LFE
Sampling rate : 48.0 kHz
Frame rate : 31.250 FPS (1536 SPF)
Bit depth : 16 bits
Compression mode : Lossy
Stream size : 257 MiB (2%)
Title : iTunes
Language : Russian
Service kind : Complete Main
Default : Yes
Forced : Yes

Audio #2
ID : 3
Format : DTS
Format/Info : Digital Theater Systems
Format profile : MA / Core
Codec ID : A_DTS
Duration : 1 h 33 min
Bit rate mode : Variable / Constant
Bit rate : 4 039 kb/s / 1 509 kb/s
Channel(s) : 6 channels
Channel positions : Front: L C R, Side: L R, LFE
Sampling rate : 48.0 kHz
Frame rate : 93.750 FPS (512 SPF)
Bit depth : 24 bits
Compression mode : Lossless / Lossy
Stream size : 2.64 GiB (17%)
Title : Original
Language : English
Default : No
Forced : No

Text #1
ID : 4
Format : UTF-8
Codec ID : S_TEXT/UTF8
Codec ID/Info : UTF-8 Plain Text
Duration : 1 h 25 min
Bit rate : 55 b/s
Count of elements : 781
Stream size : 34.6 KiB (0%)
Title : Full
Language : Russian
Default : No
Forced : No

Text #2
ID : 5
Format : UTF-8
Codec ID : S_TEXT/UTF8
Codec ID/Info : UTF-8 Plain Text
Duration : 1 h 24 min
Bit rate : 33 b/s
Count of elements : 806
Stream size : 20.8 KiB (0%)
Title : Full
Language : English
Default : No
Forced : No

Menu
00:00:00.000 : en:00:00:00.000
00:07:48.176 : en:00:07:48.176
00:15:25.758 : en:00:15:25.758
00:21:42.635 : en:00:21:42.635
00:29:05.577 : en:00:29:05.577
00:33:03.190 : en:00:33:03.190
00:39:15.687 : en:00:39:15.687
00:46:07.056 : en:00:46:07.056
00:51:06.063 : en:00:51:06.063
00:57:12.763 : en:00:57:12.763
01:03:03.822 : en:01:03:03.822
01:09:11.147 : en:01:09:11.147
01:14:45.898 : en:01:14:45.898
01:20:18.605 : en:01:20:18.605
01:26:24.221 : en:01:26:24.221
01:34:09.394 : en:01:34:09.394



Скачать Дикий.Braven.(Лин.Одинг).[2018.боевик.приключения.BDRemux].[1080p].[Dub.(лицензия.iTunes)]+[Eng]+[Sub.Rus.Eng].torrent без регистрации
Золото ЗОЛОТАЯ РАЗДАЧА! СКАЧАННОЕ НЕ ЗАСЧИТЫВАЕТСЯ! Золото
Дата: Зарегистрирован   [ Тип: внутренний ] Как тут cкачать?
MAGNET ссылка
MAGNET ссылка


Скачать .torrent

80 KB

Статус: проверено DHT
Скачан: торрент - 334 раз, раздача полностью - 208 раз
Размер: 15,72 GB
Оценка:  5 (Голосов: 1)
Поблагодарили: 16
Поделиться ссылкой на эту раздачу с друзьями:
В контактеFacebookОдноклассникиTwitterLivejournalМой МирLiveinternet
 

 
Показать сообщения:    


Вы не можете начинать темы
Вы не можете отвечать на сообщения
Вы не можете редактировать свои сообщения
Вы не можете удалять свои сообщения
Вы не можете голосовать в опросах
Вы не можете прикреплять файлы к сообщениям
Вы можете скачивать файлы