Loading...
Error

Скачать Книга крови / Book of Blood (Джон Харрисон) [2009, ужасы, триллер, драма, детектив, BDRip] [720p] [Режиссёрская версия] [Director's Cut] [Dub]+[DVO]+[Eng]+[Sub Rus, Eng]x2 торрент без регистрации

Статистика раздачи
Размер:  3,89 GB   |    Скачан:  16 раз
Сидов:  1  [  0 KB/s  ]  
 
 
 
Автор Сообщение

Marsianka

[] 



Информация о фильме
Название: Книга крови
Оригинальное название: Book of Blood
Год выхода: 2009
Жанр: ужасы, триллер, драма, детектив
Режиссер: Джон Харрисон
В ролях: Джонас Армстронг, Софи Уорд, Клайв Расселл, Пол Блэр, Романа Аберкромби, Саймон Бэмфорд, Джеймс Уотсон, Даг Брэдли, Гоуэн Калдер, Грэхэм Колкухоун

О фильме:
Сюжет закручен вокруг специалиста по паранормальным явлениям, который по ходу расследования жуткого убийства обнаруживает мистический дом, из которого души отправляются прямиком в загробное царство.


Страна: Великобритания
Продолжительность: 01:40:27
Перевод: Профессиональный (дублированный), профессиональный (двухголосый закадровый)

Файл
Кодек: x.264
Качество: BDRip 720p.
Видео: MPEG-4 AVC, 4083 Kbps, 1280x694, 23.976 fps

Аудио 1: Dolby Digital Audio Russian 5.1 / 48 kHz / 448 kbps (Дублированный)
Аудио 2: Dolby Digital Audio Russian 5.1 / 48 kHz / 448 kbps (Двухголосый закадровый)
Аудио 3: Dolby Digital Audio English 5.1 / 48 kHz / 448 kbps
Субтитры: Русские, английские
General
Unique ID : 198862975303370589485815717836122034881 (0x959B9DAB6777B2DF8EA09E69339512C1)
Complete name : D:DownloadKniga Krovi.(2009).DirCut.BDRip.720p.mkv
Format : Matroska
Format version : Version 2
File size : 3.89 GiB
Duration : 1h 40mn
Overall bit rate : 5 538 Kbps
Encoded date : UTC 2018-02-27 21:33:43
Writing application : mkvmerge v5.8.0 ('No Sleep / Pillow') built on Sep 2 2012 15:37:04
Writing library : libebml v1.2.3 + libmatroska v1.3.0

Video
ID : 1
Format : AVC
Format/Info : Advanced Video Codec
Format profile : High@L4.1
Format settings, CABAC : Yes
Format settings, ReFrames : 9 frames
Muxing mode : Header stripping
Codec ID : V_MPEG4/ISO/AVC
Duration : 1h 40mn
Bit rate : 4 083 Kbps
Width : 1 280 pixels
Height : 694 pixels
Display aspect ratio : 16:9
Frame rate : 23.976 fps
Color space : YUV
Chroma subsampling : 4:2:0
Bit depth : 8 bits
Scan type : Progressive
Bits/(Pixel*Frame) : 0.192
Stream size : 2.87 GiB (74%)
Writing library : x264 core 146 r2538 121396c
Encoding settings : cabac=1 / ref=9 / deblock=1:-3:-2 / analyse=0x3:0x113 / me=umh / subme=11 / psy=1 / psy_rd=1.00:0.15 / mixed_ref=1 / me_range=32 / chroma_me=1 / trellis=2 / 8x8dct=1 / cqm=0 / deadzone=21,11 / fast_pskip=0 / chroma_qp_offset=-3 / threads=6 / lookahead_threads=1 / sliced_threads=0 / nr=0 / decimate=1 / interlaced=0 / bluray_compat=0 / constrained_intra=0 / bframes=9 / b_pyramid=2 / b_adapt=2 / b_bias=0 / direct=1 / weightb=1 / open_gop=0 / weightp=2 / keyint=230 / keyint_min=23 / scenecut=40 / intra_refresh=0 / rc_lookahead=40 / rc=crf / mbtree=0 / crf=17.9 / qcomp=0.60 / qpmin=0 / qpmax=69 / qpstep=4 / vbv_maxrate=62500 / vbv_bufsize=78125 / crf_max=0.0 / nal_hrd=none / filler=0 / ip_ratio=1.40 / pb_ratio=1.30 / aq=1:1.00
Language : English
Default : Yes
Forced : No

Audio #1
ID : 2
Format : AC-3
Format/Info : Audio Coding 3
Mode extension : CM (complete main)
Muxing mode : Header stripping
Codec ID : A_AC3
Duration : 1h 40mn
Bit rate mode : Constant
Bit rate : 448 Kbps
Channel(s) : 6 channels
Channel positions : Front: L C R, Side: L R, LFE
Sampling rate : 48.0 KHz
Bit depth : 16 bits
Compression mode : Lossy
Stream size : 322 MiB (8%)
Title : DUB
Language : Russian
Default : Yes
Forced : No

Audio #2
ID : 3
Format : AC-3
Format/Info : Audio Coding 3
Mode extension : CM (complete main)
Muxing mode : Header stripping
Codec ID : A_AC3
Duration : 1h 40mn
Bit rate mode : Constant
Bit rate : 448 Kbps
Channel(s) : 6 channels
Channel positions : Front: L C R, Side: L R, LFE
Sampling rate : 48.0 KHz
Bit depth : 16 bits
Compression mode : Lossy
Stream size : 322 MiB (8%)
Title : DVO
Language : Russian
Default : No
Forced : No

Audio #3
ID : 4
Format : AC-3
Format/Info : Audio Coding 3
Mode extension : CM (complete main)
Muxing mode : Header stripping
Codec ID : A_AC3
Duration : 1h 40mn
Bit rate mode : Constant
Bit rate : 448 Kbps
Channel(s) : 6 channels
Channel positions : Front: L C R, Side: L R, LFE
Sampling rate : 48.0 KHz
Bit depth : 16 bits
Compression mode : Lossy
Stream size : 322 MiB (8%)
Language : English
Default : No
Forced : No

Text #1
ID : 5
Format : UTF-8
Codec ID : S_TEXT/UTF8
Codec ID/Info : UTF-8 Plain Text
Language : Russian
Default : No
Forced : No

Text #2
ID : 6
Format : UTF-8
Codec ID : S_TEXT/UTF8
Codec ID/Info : UTF-8 Plain Text
Language : English
Default : No
Forced : No

Menu
00:00:00.000 : :Chapter 01
00:05:48.931 : :Chapter 02
00:12:35.087 : :Chapter 03
00:19:15.445 : :Chapter 04
00:26:21.997 : :Chapter 05
00:31:59.918 : :Chapter 06
00:37:16.692 : :Chapter 07
00:44:12.566 : :Chapter 08
00:49:01.688 : :Chapter 09
00:55:45.091 : :Chapter 10
01:01:58.965 : :Chapter 11
01:09:14.316 : :Chapter 12
01:16:19.700 : :Chapter 13
01:21:43.690 : :Chapter 14
01:27:41.547 : :Chapter 15
01:35:37.314 : :Chapter 16
01:40:26.937 : :Chapter 17



Скачать Книга.крови.Book.of.Blood.(Джон.Харрисон).[2009.ужасы.триллер.драма.детектив.BDRip].[720p].[Режиссёрская.версия].[Director's.Cut].[Dub]+[DVO]+[Eng]+[Sub.Rus.Eng]x2.torrent без регистрации
Золото ЗОЛОТАЯ РАЗДАЧА! СКАЧАННОЕ НЕ ЗАСЧИТЫВАЕТСЯ! Золото
Дата: Зарегистрирован   [ Тип: внутренний ] Как тут cкачать?
MAGNET ссылка
MAGNET ссылка


Скачать .torrent

20 KB

Статус: проверено DHT
Скачан: торрент - 16 раз, раздача полностью - 6 раз
Размер: 3,89 GB
Оценка:  - (Голосов: 0)
Поблагодарили: 1
Поделиться ссылкой на эту раздачу с друзьями:
В контактеFacebookОдноклассникиTwitterLivejournalМой МирLiveinternet
 

 
Показать сообщения:    


Вы не можете начинать темы
Вы не можете отвечать на сообщения
Вы не можете редактировать свои сообщения
Вы не можете удалять свои сообщения
Вы не можете голосовать в опросах
Вы не можете прикреплять файлы к сообщениям
Вы можете скачивать файлы