Loading...
Error

Скачать Дикая Франция / La France sauvage (Фредерик Фебвр, Августин Виатт) [2011, документальный, видовой, природа, флора, фауна, BDRemux] [1080p] [VO (Наталья Романько)] торрент без регистрации

Статистика раздачи
Размер:  18,52 GB   |    Скачан:  42 раза
Сидов:  1  [  0 KB/s  ]  
 
 
 
Автор Сообщение

Marsianka

[] 

Информация о фильме
Название: Дикая Франция
Оригинальное: La France sauvage
Год выхода: 2011
Жанр: документальный, видовой, природа, флора, фауна
Режиссер: Фредерик Фебвр, Августин Виатт

О фильме:
Во Франции дикая жизнь заполняет каждый клочок территории. Она подчиняется световым циклам и живёт в своём собственном ритме, задаваемом испокон веков великими курантами природы. Для животных и растений Франция - страна исключительная и уникальная. Её контрастные климатические зоны и богатые ландшафты, приютили поразительное разнообразие видов, которые можно встретить везде - от берегов моря до горных вершин. Дикая жизнь везде, иногда - незаметная, но такая близкая. Её основной закон - приспособиться чтобы выжить. Узнать её означает прочувствовать пульсацию времён года, пробудить самые яркие чувства, увидеть мощь сил природы и открыть неизвестную Францию.

Страна: Франция
Студия: Arte G.E.I.E - Gedeon Programmes
Продолжительность: 01:29:19
Перевод: : Профессиональный (одноголосый, закадровый) (Наталья Романько)

Файл
Кодек: MPEG-4 AVC
Качество: BDRemux 1080p | A
Видео: 1920x1080, 27,6 Мбит/с, 25 кадр/c
Звук: DTS-HD MA, 6 каналов, 2124 Кбит/с
Полное имя : C:UsersDVideosДИКАЯ ФРАНЦИЯ.mkv
Формат : Matroska
Версия формата : Version 4 / Version 2
Размер файла : 18,5 Гбайт
Продолжительность : 1 ч. 29 м.
Режим общего битрейта : Переменный
Общий поток : 29,7 Мбит/сек
Дата кодирования : UTC 2017-12-02 03:30:37
Программа кодирования : mkvmerge v18.0.0 ('Apricity') 64-bit
Библиотека кодирования : libebml v1.3.5 + libmatroska v1.4.8

Видео
Идентификатор : 1
Формат : AVC
Формат/Информация : Advanced Video Codec
Профиль формата : High@L4.1
Настройки формата : CABAC / 4 Ref Frames
Параметр CABAC формата : Да
Параметр RefFrames формата : 4 кадра
Идентификатор кодека : V_MPEG4/ISO/AVC
Продолжительность : 1 ч. 29 м.
Вид битрейта : Переменный
Битрейт : 27,6 Мбит/сек
Максимальный битрейт : 35,0 Мбит/сек
Ширина : 1920 пикселей
Высота : 1080 пикселей
Соотношение сторон : 16:9
Режим частоты кадров : Постоянный
Частота кадров : 25,000 кадров/сек
Стандарт вещания : PAL
Цветовое пространство : YUV
Субдискретизация насыщенности : 4:2:0
Битовая глубина : 8 бит
Тип развёртки : MBAFF
Бит/(Пиксели*Кадры) : 0.531
Размер потока : 17,2 Гбайт (93%)
Default : Да
Forced : Нет
Цветовой диапазон : Limited
Основные цвета : BT.709
Характеристики трансфера : BT.709
Коэффициенты матрицы : BT.709

Аудио
Идентификатор : 2
Формат : DTS
Формат/Информация : Digital Theater Systems
Профиль формата : MA / Core
Идентификатор кодека : A_DTS
Продолжительность : 1 ч. 29 м.
Вид битрейта : Переменный / Постоянный
Битрейт : 2124 Кбит/сек / 1509 Кбит/сек
Каналы : 6 каналов
Расположение каналов : Front: L C R, Side: L R, LFE
Частота : 48,0 КГц
Частота кадров : 93,750 кадра/сек (512 SPF)
Битовая глубина : 16 бит
Метод сжатия : Без потерь / Lossy
Размер потока : 1,33 Гбайт (7%)
Язык : Russian
Default : Да
Forced : Нет



Скачать Дикая.Франция.La.France.sauvage.(Фредерик.Фебвр.Августин.Виатт).[2011.документальный.видовой.природа.флора.фауна.BDRemux].[1080p].[VO.(Наталья.Романько)].torrent без регистрации
Золото ЗОЛОТАЯ РАЗДАЧА! СКАЧАННОЕ НЕ ЗАСЧИТЫВАЕТСЯ! Золото
Дата: Зарегистрирован   [ Тип: внутренний ] Как тут cкачать?
MAGNET ссылка
MAGNET ссылка


Скачать .torrent

47 KB

Статус: проверено DHT
Скачан: торрент - 42 раз, раздача полностью - 2 раз
Размер: 18,52 GB
Оценка:  - (Голосов: 0)
Поблагодарили: 0
Поделиться ссылкой на эту раздачу с друзьями:
В контактеFacebookОдноклассникиTwitterLivejournalМой МирLiveinternet
 

 
Показать сообщения:    


Вы не можете начинать темы
Вы не можете отвечать на сообщения
Вы не можете редактировать свои сообщения
Вы не можете удалять свои сообщения
Вы не можете голосовать в опросах
Вы не можете прикреплять файлы к сообщениям
Вы можете скачивать файлы