Loading...
Error

Скачать Дети кукурузы: Беглянка / Children of the Corn: Runaway (Джон Гулагер) [2018, ужасы, триллер, BDRip] [1080p] [VO (Xixidok)]+[Eng]+[Sub Rus, Eng] торрент без регистрации

Статистика раздачи
Размер:  7,42 GB   |    Скачан:  95 раз
Сидов:  1  [  0 KB/s  ]  
 
 
 
Автор Сообщение

МихаНЕзатор

[] 

Информация о фильме
Название: Дети кукурузы: Беглянка
Оригинальное название: Children of the Corn: Runaway
Год выхода: 2018
Жанр: ужасы, триллер
Режиссер: Джон Гулагер

В ролях: Марсия Миллер, ДжейАр Хэтчетт, Линн Эндрюс III, Джейк Райан Скотт, Молли Никки Андерсон, Лорри Чилкоут, Мэри Кэтрин Брайант, Дэбби Такер

О фильме: Фильм повествует о беременной девушке, которая сбежала от кровожадного культа детей-убийц в маленьком городке на Среднем Западе. Тринадцать лет Руфь проводит в бегах, пытаясь спасти своего сына от ужасной участи, и наконец решает осесть в небольшом городе в штате Оклахома. Но очень скоро она осознаёт, что от призраков прошлого нельзя просто убежать.



Небольшая реклама в титрах

Страна: США
Производство: Dimension Films
Продолжительность: 01:22:16
Перевод: Любительский (одноголосый) Хихикающий доктор
Субтитры: Русские, английские

Файл
Формат: MKV
Качество: BDRip 1080p
Видео: MPEG-4 AVC, 9891 Кбит/c, 1920x816, Частота кадров : 23,976 (24000/1001) кадра/сек
Звук: Русский (DTS, 6 ch, 1510 kbps), английский (DTS, 6 ch, 1509 kbps)

Общее
Уникальный идентификатор : 243147024554829709523179330350889287432 (0xB6EC69DE461E19AE9CC9543DFD9FBF08)
Полное имя : e:\MMMM\Children.of.the.Corn.Runaway.2018.1080p.BDRip.x264.mkv
Формат : Matroska
Версия формата : Version 4 / Version 2
Размер файла : 7,42 Гбайт
Продолжительность : 1 ч. 22 м.
Общий поток : 12,9 Мбит/сек
Дата кодирования : UTC 2018-03-29 13:11:55
Программа кодирования : mkvmerge v6.9.1 ('Blue Panther') 64bit built on Apr 18 2014 18:23:38
Библиотека кодирования : libebml v1.3.0 + libmatroska v1.4.1

Видео
Идентификатор : 1
Формат : AVC
Формат/Информация : Advanced Video Codec
Профиль формата : High@L4.1
Настройки формата : CABAC / 5 Ref Frames
Параметр CABAC формата : Да
Параметр RefFrames формата : 5 кадров
Идентификатор кодека : V_MPEG4/ISO/AVC
Продолжительность : 1 ч. 22 м.
Битрейт : 9891 Кбит/сек
Ширина : 1920 пикселей
Высота : 816 пикселей
Соотношение сторон : 2,35:1
Режим частоты кадров : Постоянный
Частота кадров : 23,976 (24000/1001) кадра/сек
Цветовое пространство : YUV
Субдискретизация насыщенности : 4:2:0
Битовая глубина : 8 бит
Тип развёртки : Прогрессивная
Бит/(Пиксели*Кадры) : 0.263
Размер потока : 5,54 Гбайт (75%)
Библиотека кодирования : x264 core 155 r2901 7d0ff22
Настройки программы : cabac=1 / ref=5 / deblock=1:-3:-3 / analyse=0x3:0x113 / me=umh / subme=8 / psy=1 / psy_rd=1.00:0.25 / mixed_ref=1 / me_range=24 / chroma_me=1 / trellis=1 / 8x8dct=1 / cqm=0 / deadzone=21,11 / fast_pskip=1 / chroma_qp_offset=-4 / threads=25 / lookahead_threads=4 / sliced_threads=0 / nr=0 / decimate=1 / interlaced=0 / bluray_compat=0 / constrained_intra=0 / bframes=3 / b_pyramid=2 / b_adapt=1 / b_bias=0 / direct=3 / weightb=1 / open_gop=0 / weightp=2 / keyint=240 / keyint_min=24 / scenecut=40 / intra_refresh=0 / rc_lookahead=50 / rc=2pass / mbtree=1 / bitrate=9891 / ratetol=1.0 / qcomp=0.60 / qpmin=0 / qpmax=69 / qpstep=4 / cplxblur=20.0 / qblur=0.5 / ip_ratio=1.40 / aq=1:0.75
Default : Да
Forced : Нет

Аудио #1
Идентификатор : 2
Формат : DTS
Формат/Информация : Digital Theater Systems
Идентификатор кодека : A_DTS
Продолжительность : 1 ч. 22 м.
Вид битрейта : Постоянный
Битрейт : 1510 Кбит/сек
Каналы : 6 каналов
Расположение каналов : Front: L C R, Side: L R, LFE
Частота : 48,0 КГц
Частота кадров : 93,750 кадра/сек (512 SPF)
Битовая глубина : 24 бит
Метод сжатия : С потерями
Размер потока : 888 Мбайт (12%)
Заголовок : xixidoktor
Язык : Russian
Default : Да
Forced : Нет

Аудио #2
Идентификатор : 3
Формат : DTS
Формат/Информация : Digital Theater Systems
Идентификатор кодека : A_DTS
Продолжительность : 1 ч. 22 м.
Вид битрейта : Постоянный
Битрейт : 1509 Кбит/сек
Каналы : 6 каналов
Расположение каналов : Front: L C R, Side: L R, LFE
Частота : 48,0 КГц
Частота кадров : 93,750 кадра/сек (512 SPF)
Битовая глубина : 24 бит
Метод сжатия : С потерями
Размер потока : 888 Мбайт (12%)
Заголовок : original
Язык : English
Default : Нет
Forced : Нет

Текст #1
Идентификатор : 4
Формат : UTF-8
Идентификатор кодека : S_TEXT/UTF8
Идентификатор кодека/Информация : UTF-8 Plain Text
Язык : Russian
Default : Нет
Forced : Нет

Текст #2
Идентификатор : 5
Формат : UTF-8
Идентификатор кодека : S_TEXT/UTF8
Идентификатор кодека/Информация : UTF-8 Plain Text
Язык : English
Default : Нет
Forced : Нет

Текст #3
Идентификатор : 6
Формат : UTF-8
Идентификатор кодека : S_TEXT/UTF8
Идентификатор кодека/Информация : UTF-8 Plain Text
Заголовок : SDH
Язык : English
Default : Нет
Forced : Нет

Меню
00:00:00.000 : en:00:00:00.000
00:05:10.018 : en:00:05:10.018
00:10:15.532 : en:00:10:15.532
00:14:30.495 : en:00:14:30.495
00:19:23.537 : en:00:19:23.537
00:25:54.386 : en:00:25:54.386
00:31:35.143 : en:00:31:35.143
00:39:47.093 : en:00:39:47.093
00:46:18.484 : en:00:46:18.484
00:50:34.782 : en:00:50:34.782
00:55:10.766 : en:00:55:10.766
00:59:11.131 : en:00:59:11.131
01:05:29.843 : en:01:05:29.843
01:11:12.268 : en:01:11:12.268
01:17:20.386 : en:01:17:20.386
01:19:25.678 : en:01:19:25.678



Скачать Дети.кукурузы.Беглянка.Children.of.the.Corn.Runaway.(Джон.Гулагер).[2018.ужасы.триллер.BDRip].[1080p].[VO.(Xixidok)]+[Eng]+[Sub.Rus.Eng].torrent без регистрации
Золото ЗОЛОТАЯ РАЗДАЧА! СКАЧАННОЕ НЕ ЗАСЧИТЫВАЕТСЯ! Золото
Дата: Зарегистрирован   [ Тип: внутренний ] Как тут cкачать?
MAGNET ссылка
MAGNET ссылка


Скачать .torrent

20 KB

Статус: проверено DHT
Скачан: торрент - 95 раз, раздача полностью - 48 раз
Размер: 7,42 GB
Оценка:  - (Голосов: 0)
Поблагодарили: 2
Поделиться ссылкой на эту раздачу с друзьями:
В контактеFacebookОдноклассникиTwitterLivejournalМой МирLiveinternet
 

 
Показать сообщения:    


Вы не можете начинать темы
Вы не можете отвечать на сообщения
Вы не можете редактировать свои сообщения
Вы не можете удалять свои сообщения
Вы не можете голосовать в опросах
Вы не можете прикреплять файлы к сообщениям
Вы можете скачивать файлы