Loading...
Error

Скачать 7 хранителей гробницы / 7 Guardians of the Tomb (Кимбл Рендалл) [2018, боевик, приключения, ужасы, HDRip] [1080p] [MVO (GreenРай Studio)] торрент без регистрации

Статистика раздачи
Размер:  5,21 GB   |    Скачан:  175 раз
Сидов:  1  [  0 KB/s  ]  
 
 
 
Автор Сообщение

МихаНЕзатор

[] 

Информация о фильме
Год выхода: 2018
Наименование: 7 хранителей гробницы
Оригинальное наименование: 7 Guardians of the Tomb
Произведено: Китай, Австралия, Россия, Таиланд
Жанр: боевик, приключения, ужасы
Режиссер постановщик: Кимбл Рендалл

В главных ролях: Ли Бинбин, Келлан Латс, У Чунь, Келси Грэммер, Ясмин Кассим, Стэф Доусон, Райан Джонсон, Тим Драксл, Шэйн Джейкобсон

О фильме: Команда археологов отправляется в древние подземелья, чтобы найти потерянного товарища, но находит вместо него колонию разумных пауков-людоедов.

Релиз от:

Внимание, имеется видео и аудио реклама от спонсора показа

Файл
Качество: HDRip 1080p
Видео данные: MKV, 1920x810 (2:40:1), 23.976 fps, 7522 Кбит/с
Аудио данные: AAC, 2 ch, 192 Кбит/с
Перевод: Любительский многоголосый (GreenРай Studio)
Продолжительность: 01:36:43
General
Unique ID : 5117263117260254733710400111998858084 (0x3D98C8D09FA5A783FAD4393CC2AF364)
Complete name : E:ГРИНРАЙGuardians.of.the.Tomb.2018.P.BDRip.1080p.mkv
Format : Matroska
Format version : Version 4 / Version 2
File size : 5.21 GiB
Duration : 1 h 36 min
Overall bit rate : 7 714 kb/s
Encoded date : UTC 2018-04-01 01:51:59
Writing application : mkvmerge v21.0.0 ('Tardigrades Will Inherit The Earth') 64-bit
Writing library : libebml v1.3.5 + libmatroska v1.4.8

Video
ID : 1
Format : AVC
Format/Info : Advanced Video Codec
Format profile : High@L4
Format settings : CABAC / 1 Ref Frames
Format settings, CABAC : Yes
Format settings, RefFrames : 1 frame
Format settings, GOP : M=1, N=30
Codec ID : V_MPEG4/ISO/AVC
Duration : 1 h 36 min
Bit rate : 7 522 kb/s
Width : 1 920 pixels
Height : 810 pixels
Display aspect ratio : 2.40:1
Frame rate mode : Constant
Frame rate : 23.976 (24000/1001) FPS
Color space : YUV
Chroma subsampling : 4:2:0
Bit depth : 8 bits
Scan type : Progressive
Bits/(Pixel*Frame) : 0.202
Stream size : 5.08 GiB (98%)
Language : English
Default : Yes
Forced : No

Audio
ID : 2
Format : AAC
Format/Info : Advanced Audio Codec
Format profile : LC
Codec ID : A_AAC-2
Duration : 1 h 36 min
Bit rate : 192 kb/s
Channel(s) : 2 channels
Channel positions : Front: L R
Sampling rate : 48.0 kHz
Frame rate : 46.875 FPS (1024 SPF)
Compression mode : Lossy
Stream size : 131 MiB (2%)
Language : English
Default : Yes
Forced : No



Скачать 7.хранителей.гробницы.7.Guardians.of.the.Tomb.(Кимбл.Рендалл).[2018.боевик.приключения.ужасы.HDRip].[1080p].[MVO.(GreenРай.Studio)].torrent без регистрации
Золото ЗОЛОТАЯ РАЗДАЧА! СКАЧАННОЕ НЕ ЗАСЧИТЫВАЕТСЯ! Золото
Дата: Зарегистрирован   [ Тип: внутренний ] Как тут cкачать?
MAGNET ссылка
MAGNET ссылка


Скачать .torrent

14 KB

Статус: проверено DHT
Скачан: торрент - 175 раз, раздача полностью - 229 раз
Размер: 5,21 GB
Оценка:  5 (Голосов: 1)
Поблагодарили: 3
Поделиться ссылкой на эту раздачу с друзьями:
В контактеFacebookОдноклассникиTwitterLivejournalМой МирLiveinternet
 

 
Показать сообщения:    


Вы не можете начинать темы
Вы не можете отвечать на сообщения
Вы не можете редактировать свои сообщения
Вы не можете удалять свои сообщения
Вы не можете голосовать в опросах
Вы не можете прикреплять файлы к сообщениям
Вы можете скачивать файлы