Loading...
Error

Скачать Миллиарды / Billions (Сезон 03) (Эми Дж. Кауфман, Брайан Коппельман, Дэвид Левин) [2018, драма, WEB-DLRip] [MVO] (AlexFilm) торрент без регистрации

Статистика раздачи
Размер:  7,86 GB   |    Скачан:  330 раз
Сидов:  1  [  0 KB/s  ]  
 
 
 
Автор Сообщение

leon030982

[] 


Миллиарды / Billions


Информация о фильме

Год выпуска: 2018
Жанр: драма
Страна: США
Студия: Showtime
Продолжительность: 1x ~01:00:00
Перевод: Профессиональный (многоголосый, закадровый) AlexFilm

Режиссёры: Эми Дж. Кауфман, Брайан Коппельман, Дэвид Левин

В ролях: Дэмиэн Льюис (Bobby Axelrod), Пол Джаматти (Chuck Rhoades), Тоби Леонард Мур (Bryan Connerty), Мэгги Сифф (Wendy Rhoades), Кондола Рашад (Kate Sacker), Келли АуКойн («Dollar» Bill Stearn), Малин Акерман (Lara Axelrod), Дэвид Костабайл (Mike «Wags» Wagner), Дэниэл К. Исаак (Ben Kim), Дэн Содер (Mafee), Ильфенеш Хадера (Deb Kawi), Джек Гор (Gordie Axelrod)


О фильме:

Экстремальное шоу на выживание в мире финансов и власти готовит новую схватку. “Чужой vs. Хищник” – непоколебимый федеральный прокурор Чак Роддс против дерзкого короля хедж-фондов Бобби Аксельрода. Ставки, нервы, амбиции – всё на пределе. Они действительно превращаются в монстров, готовых поступиться самым дорогим ради животного, иррационального желания одержать верх. Друзья, родители, жены в этой борьбе за власть – всего лишь средства достижения цели. И для многих из них это становится очевидным. Смогут ли противники выстоять в одиночку?



Релиз:
Перевод: Александр Астрократов
Монтаж и сведение звука: Михаил Шорыгин

Роли озвучивали:
Маргарита Корш
Екатерина Муравицкая
Владимир Курдов
Кирилл Патрино
Андрей Стакионис
Михаил Шорыгин
Михаил Суслов


Файл

Качество: WEB-DLRip
Формат: AVI
Видео: 720x400 (1.80:1), 23.976 fps, XviD ~1400 kbps avg, 0.20 bit/pixel
Аудио#1: Russian: 48 kHz, MPEG Layer 3, 2 ch, ~128.00 kbps avg | AlexFilm
Аудио#2: English: 48 kHz, MPEG Layer 3, 2 ch, ~128.00 kbps avg
Субтитры: нет

Добавлена 12-я серия!
Дэмиэн Льюис отдыхал с семьёй в Киллибегсе (это посёлок в Ирландии), когда кто-то из местных жителей принял его за банкира в бегах и позвонил в ФБР.

Во время съёмок Дэмиэн Льюис был замечен в Сохо с книгой «Как некоторых людей можно безостановочно надувать. Краткое руководство». Написал её Дэвид Айнхорн, инвестор и менеджер хедж-фонда. Актёр читал её, готовясь к роли Бобби Аксельрода.

Съёмки сериала проходили в Бруклине, в Нью-Йорке, рядом с домом, где живёт актёр Пол Джаматти.

Вначале Американская киноассоциация присвоила фильму рейтинг R (лица, не достигшие 17-летнего возраста, допускаются на фильм только в сопровождении одного из родителей или законного представителя), но его перемонтировали, и рейтинг фильму сменили на PG (детям рекомендуется смотреть фильм с родителями).
Формат : AVI
Формат/Информация : Audio Video Interleave
Размер файла : 713 Мбайт
Продолжительность : 59 м.
Общий поток : 1673 Кбит/сек
Название фильма : Billions 1x01 @ AlexFilm
Программа кодирования : VirtualDubMod 1.5.10.2 (build 2540/release)
Библиотека кодирования : VirtualDubMod build 2540/release

Видео
Идентификатор : 0
Формат : MPEG-4 Visual
Профиль формата : Advanced Simple@L5
Параметр BVOP формата : Нет
Параметр QPel формата : Нет
Параметр GMC формата : Без точки перехода
Параметр матрицы формата : Default (H.263)
Идентификатор кодека : XVID
Идентификатор кодека/Подсказка : XviD
Продолжительность : 59 м.
Битрейт : 1403 Кбит/сек
Ширина : 720 пикселей
Высота : 400 пикселей
Соотношение сторон : 16:9
Частота кадров : 23,976 кадра/сек
Цветовое пространство : YUV
Субдискретизация насыщенности : 4:2:0
Битовая глубина : 8 бит
Тип развёртки : Прогрессивная
Метод сжатия : С потерями
Бит/(Пиксели*Кадры) : 0.203
Размер потока : 598 Мбайт (84%)
Библиотека кодирования : XviD 73

Аудио #1
Идентификатор : 1
Формат : MPEG Audio
Версия формата : Version 1
Профиль формата : Layer 3
Режим : Joint stereo
Расширение режима : MS Stereo
Идентификатор кодека : 55
Идентификатор кодека/Подсказка : MP3
Продолжительность : 59 м.
Вид битрейта : Постоянный
Битрейт : 128 Кбит/сек
Каналы : 2 канала
Частота : 48,0 КГц
Метод сжатия : С потерями
Размер потока : 54,6 Мбайт (8%)
Выравнивание : Соединение по промежуткам
Продолжительность промежутка : 42 мс. (1,00 видеокадр)
Время предзагрузки промежутка : 504 мс.
Заголовок : Russian (AlexFilm)
Библиотека кодирования : LAME3.99r
Настройки программы : -m j -V 4 -q 3 -lowpass 18 -b 128

Аудио #2
Идентификатор : 2
Формат : MPEG Audio
Версия формата : Version 1
Профиль формата : Layer 3
Режим : Joint stereo
Расширение режима : MS Stereo
Идентификатор кодека : 55
Идентификатор кодека/Подсказка : MP3
Продолжительность : 59 м.
Вид битрейта : Постоянный
Битрейт : 128 Кбит/сек
Каналы : 2 канала
Частота : 48,0 КГц
Метод сжатия : С потерями
Размер потока : 54,6 Мбайт (8%)
Выравнивание : Соединение по промежуткам
Продолжительность промежутка : 42 мс. (1,00 видеокадр)
Время предзагрузки промежутка : 504 мс.
Заголовок : English
Библиотека кодирования : LAME3.90.3

Когда раздача ведётся путём добавления новых серий, при каждом добавлении создётся новый торрент. Чтобы начать докачку новой серии, пользователям необходимо сделать следующее:

(1) остановить скачивание,

(2) удалить старый торрент у себя из клиента (старые серии удалять не надо),

(3) скачать новый торрент и запустить его у себя в клиенте вместо старого, при этом указать клиенту путь в старую папку, куда и должно происходить скачивание новых серий.

Ваш клиент при этом должен произвести хеширование (проверку) старой папки (если не производит сам - помогите ему сделать это), и будет докачивать только те серии, которых у вас ещё нет. Старые серии при этом не удаляются, а продолжают раздаваться!

Eсли вы уже удалили старые серии, то предотвратить повторную закачку старых серий можно, отжав галочку в соответсвующих местах при запуске нового торрента. По возможности, желательно не удалять старые серии как можно дольше, чтобы релизер не столько продолжал раздавать старые серии, а смог сконцентрироваться на новых.



Скачать Миллиарды.Billions.(Сезон.03).(Эми.Дж.Кауфман.Брайан.Коппельман.Дэвид.Левин).[2018.драма.WEB-DLRip].[MVO].(AlexFilm).torrent без регистрации
Золото ЗОЛОТАЯ РАЗДАЧА! СКАЧАННОЕ НЕ ЗАСЧИТЫВАЕТСЯ! Золото
Дата: Зарегистрирован   [ Тип: внутренний ] Как тут cкачать?
MAGNET ссылка
MAGNET ссылка


Скачать .torrent

21 KB

Статус: проверено DHT
Скачан: торрент - 330 раз, раздача полностью - 15 раз
Размер: 7,86 GB
Оценка:  - (Голосов: 0)
Поблагодарили: 0
Поделиться ссылкой на эту раздачу с друзьями:
В контактеFacebookОдноклассникиTwitterLivejournalМой МирLiveinternet
 

 
Показать сообщения:    


Вы не можете начинать темы
Вы не можете отвечать на сообщения
Вы не можете редактировать свои сообщения
Вы не можете удалять свои сообщения
Вы не можете голосовать в опросах
Вы не можете прикреплять файлы к сообщениям
Вы можете скачивать файлы