Loading...
Error

Скачать Чудо-женщина / Wonder Woman (Пэтти Дженкинс) [2017, Фантастика, Фэнтези, Боевик, Приключения, BDRip] [720p] [DUB] [iTunes] [R.G. GoldenShara] торрент без регистрации

Статистика раздачи
Размер:  3,79 GB   |    Скачан:  168 раз
Сидов:  1  [  0 KB/s  ]  
 
 
 
Автор Сообщение

LORDKILL

[] 


Чудо-женщина / Wonder Woman


Год выпуска: 2017
Выпущено: США, Китай, Гонконг, Великобритания, Италия, Канада, Новая Зеландия
Жанр: Фантастика, Фэнтези, Боевик, Приключения
Продолжительность: 02:21:16
Перевод: Профессиональный (полное дублирование)
Субтитры: русские (форс., полные), английские

Режиссер: Пэтти Дженкинс

В ролях: Wonder Woman - Галь Гадот (Мария Фортунатова)
Steve Trevor - Крис Пайн (Александр Коврижных)
Hippolyta - Конни Нильсен (Нина Тобилевич)
Antiope - Робин Райт (Ольга Плетнёва)
Ludendorff - Дэнни Хьюстон (Александр Груздев)
Sir Patrick - Дэвид Тьюлис (Андрей Градов)
Sameer - Саид Тагмауи (Дмитрий Филимонов)
Charlie - Юэн Бремнер (Борис Шувалов)
The Chief - Юджин «Храбрый камень»
Etta - Люси Дэвис (Анастасия Лапина)
Dr. Maru - Елена Анайя (Рамиля Искандер)

Описание: Перед тем как стать Чудо-Женщиной, она была Дианой — принцессой амазонок, обученной быть непобедимой воительницей. И когда на берегах ограждённого от внешнего мира райского острова, который служил ей родиной, терпит крушение американский пилот и рассказывает о серьёзном конфликте, бушующем во внешнем мире, Диана покидает свой дом, чтобы справиться с этой угрозой. И там, сражаясь бок о бок с человеком в войне за мир, Диана обнаружит всю полноту своей власти… и своё истинное предназначение.







Качество: BDRip 720p
Формат: MKV
Видео кодек: H.264
Аудио кодек: AC3
Видео: 1280x536 (2.40:1), 3450 kbps, 23.976 fps
Аудио: Русский (AC-3, 6ch, 384 kbps)

x264 [info]: frame I:1736 Avg QP:17.05 size:113219
x264 [info]: frame P:45989 Avg QP:18.70 size: 37262
x264 [info]: frame B:155495 Avg QP:22.07 size: 11222
x264 [info]: consecutive B-frames: 2.5% 2.8% 8.0% 20.4% 27.1% 33.4% 4.2% 0.8% 0.7%
x264 [total]: encoded 203220 frames, 6.38 fps, 3449.96 kb/s

General
Unique ID : 233735945723085811338146250123195054804 (0xAFD7E7DB9CE359BD88C0ECA7854DFAD4)
Complete name : F:\ФИЛЬМЫ\Чудо-женщина.2017.x264.BDRip.720p.DUB.mkv
Format : Matroska
Format version : Version 4 / Version 2
File size : 3.79 GiB
Duration : 2 h 21 min
Overall bit rate : 3 836 kb/s
Movie name : Чудо-женщина / Wonder Woman (2017) - #LORDKILL#
Encoded date : UTC 2017-09-15 08:24:23
Writing application : mkvmerge v9.5.0 ('Quiet Fire') 64bit
Writing library : libebml v1.3.4 + libmatroska v1.4.5

Video
ID : 1
Format : AVC
Format/Info : Advanced Video Codec
Format profile : High@L4.1
Format settings, CABAC : Yes
Format settings, RefFrames : 11 frames
Codec ID : V_MPEG4/ISO/AVC
Duration : 2 h 21 min
Bit rate : 3 450 kb/s
Width : 1 280 pixels
Height : 536 pixels
Display aspect ratio : 2.40:1
Frame rate mode : Constant
Frame rate : 23.976 (24000/1001) FPS
Color space : YUV
Chroma subsampling : 4:2:0
Bit depth : 8 bits
Scan type : Progressive
Bits/(Pixel*Frame) : 0.210
Stream size : 3.40 GiB (90%)
Writing library : x264 core 146 r2538 121396c
Encoding settings : cabac=1 / ref=11 / deblock=1:-3:-3 / analyse=0x3:0x113 / me=umh / subme=11 / psy=1 / psy_rd=1.00:0.10 / mixed_ref=1 / me_range=64 / chroma_me=1 / trellis=2 / 8x8dct=1 / cqm=0 / deadzone=21,11 / fast_pskip=0 / chroma_qp_offset=-3 / threads=12 / lookahead_threads=2 / sliced_threads=0 / nr=0 / decimate=1 / interlaced=0 / bluray_compat=0 / constrained_intra=0 / bframes=8 / b_pyramid=2 / b_adapt=2 / b_bias=0 / direct=1 / weightb=1 / open_gop=0 / weightp=2 / keyint=240 / keyint_min=23 / scenecut=40 / intra_refresh=0 / rc=crf / mbtree=0 / crf=19.0 / qcomp=0.60 / qpmin=0 / qpmax=69 / qpstep=4 / ip_ratio=1.40 / pb_ratio=1.30 / aq=1:1.00
Default : Yes
Forced : No

Audio
ID : 2
Format : AC-3
Format/Info : Audio Coding 3
Format settings, Endianness : Big
Codec ID : A_AC3
Duration : 2 h 21 min
Bit rate mode : Constant
Bit rate : 384 kb/s
Channel(s) : 6 channels
Channel positions : Front: L C R, Side: L R, LFE
Sampling rate : 48.0 kHz
Frame rate : 31.250 FPS (1536 SPF)
Bit depth : 16 bits
Compression mode : Lossy
Stream size : 388 MiB (10%)
Title : Дубляж - iTunes
Language : Russian
Service kind : Complete Main
Default : Yes
Forced : No

Text #1
ID : 3
Format : UTF-8
Codec ID : S_TEXT/UTF8
Codec ID/Info : UTF-8 Plain Text
Duration : 2 h 7 min
Bit rate : 1 b/s
Count of elements : 15
Stream size : 1.08 KiB (0%)
Title : Forced
Language : Russian
Default : Yes
Forced : No

Text #2
ID : 4
Format : UTF-8
Codec ID : S_TEXT/UTF8
Codec ID/Info : UTF-8 Plain Text
Duration : 2 h 12 min
Bit rate : 80 b/s
Count of elements : 1300
Stream size : 78.2 KiB (0%)
Title : Full
Language : Russian
Default : No
Forced : No

Text #3
ID : 5
Format : UTF-8
Codec ID : S_TEXT/UTF8
Codec ID/Info : UTF-8 Plain Text
Duration : 2 h 20 min
Bit rate : 44 b/s
Count of elements : 1586
Stream size : 46.1 KiB (0%)
Title : Full
Language : English
Default : No
Forced : No

Text #4
ID : 6
Format : UTF-8
Codec ID : S_TEXT/UTF8
Codec ID/Info : UTF-8 Plain Text
Duration : 2 h 20 min
Bit rate : 50 b/s
Count of elements : 1827
Stream size : 52.0 KiB (0%)
Title : SDH
Language : English
Default : No
Forced : No

Menu
00:00:00.000 : en:00:00:00.000
00:10:26.918 : en:00:10:26.918
00:23:12.558 : en:00:23:12.558
00:33:10.739 : en:00:33:10.739
00:43:55.132 : en:00:43:55.132
00:54:25.554 : en:00:54:25.554
01:07:38.263 : en:01:07:38.263
01:22:30.195 : en:01:22:30.195
01:34:02.846 : en:01:34:02.846
01:45:37.998 : en:01:45:37.998
01:57:43.765 : en:01:57:43.765
02:10:41.417 : en:02:10:41.417





Скачать Чудо-женщина.Wonder.Woman.(Пэтти.Дженкинс).[2017.Фантастика.Фэнтези.Боевик.Приключения.BDRip].[720p].[DUB].[iTunes].[R.G.GoldenShara].torrent без регистрации
Золото ЗОЛОТАЯ РАЗДАЧА! СКАЧАННОЕ НЕ ЗАСЧИТЫВАЕТСЯ! Золото
Дата: Зарегистрирован   [ Тип: внутренний ] Как тут cкачать?
MAGNET ссылка
MAGNET ссылка


Скачать .torrent

19 KB

Статус: проверено
Скачан: торрент - 168 раз, раздача полностью - 282 раз
Размер: 3,79 GB
Оценка:  5 (Голосов: 2)
Поблагодарили: 9
Поделиться ссылкой на эту раздачу с друзьями:
В контактеFacebookОдноклассникиTwitterLivejournalМой МирLiveinternet
 

 

7Жнец7

[] 

Всем Здравствуйте!
Пожалуйста встаньте на раздачу.
Нужна скорость.
Заранее Спасибо!
 
Показать сообщения:    


Вы не можете начинать темы
Вы не можете отвечать на сообщения
Вы не можете редактировать свои сообщения
Вы не можете удалять свои сообщения
Вы не можете голосовать в опросах
Вы не можете прикреплять файлы к сообщениям
Вы можете скачивать файлы