Loading...
Error

/ The Post ( ) [2017, , , , , HDRip] [MVO (HDrezka Studio)]+[Sub Rus, Eng]+[Original Eng]

2,18 GB   |    :  83
1  [  0 KB/s  ]  
 
 
 

[] 

/ The Post


: 2017
: ,
: , , ,
: / Steven Spielberg

: , , , , , , , , ,

: , - , . - , 30 . , .



: 01:55:58
: ( ) | HDrezka Studio
: ,
:

: HDRip
: AVI
: 704x384 (1.83:1), 23.976 fps, XviD build 73 ~1919 kbps avg, 0.30 bit/pixel
: 48 kHz, AC3 Dolby Digital, 3/2 (L,C,R,l,r) + LFE ch, ~384 kbps | Rus
: 48 kHz, AC3 Dolby Digital, 3/2 (L,C,R,l,r) + LFE ch, ~384 kbps | Eng

:

Format : AVI
Format/Info : Audio Video Interleave
Format profile : OpenDML
File size : 2.18 GiB
Duration : 1 h 55 min
Overall bit rate : 2 694 kb/s
Writing application : VirtualDubMod 1.5.10.2 (build 2542/release)
Writing library : VirtualDubMod build 2542/release

Video
ID : 0
Format : MPEG-4 Visual
Format profile : Advanced Simple@L5
Format settings : BVOP1 / Custom Matrix
Format settings, BVOP : 1
Format settings, QPel : No
Format settings, GMC : No warppoints
Format settings, Matrix : Custom
Codec ID : XVID
Codec ID/Hint : XviD
Duration : 1 h 55 min
Bit rate : 1 908 kb/s
Width : 704 pixels
Height : 384 pixels
Display aspect ratio : 1.85:1
Frame rate : 23.976 (24000/1001) FPS
Color space : YUV
Chroma subsampling : 4:2:0
Bit depth : 8 bits
Scan type : Progressive
Compression mode : Lossy
Bits/(Pixel*Frame) : 0.294
Stream size : 1.55 GiB (71%)
Writing library : XviD 73

Audio #1
ID : 1
Format : AC-3
Format/Info : Audio Coding 3
Codec ID : 2000
Duration : 1 h 55 min
Bit rate mode : Constant
Bit rate : 384 kb/s
Channel(s) : 6 channels
Channel positions : Front: L C R, Side: L R, LFE
Sampling rate : 48.0 kHz
Frame rate : 31.250 FPS (1536 SPF)
Bit depth : 16 bits
Compression mode : Lossy
Stream size : 318 MiB (14%)
Alignment : Split accross interleaves
Interleave, duration : 42 ms (1.00 video frame)
Interleave, preload duratio : 500 ms
Service kind : Complete Main

Audio #2
ID : 2
Format : AC-3
Format/Info : Audio Coding 3
Codec ID : 2000
Duration : 1 h 55 min
Bit rate mode : Constant
Bit rate : 384 kb/s
Channel(s) : 6 channels
Channel positions : Front: L C R, Side: L R, LFE
Sampling rate : 48.0 kHz
Frame rate : 31.250 FPS (1536 SPF)
Bit depth : 16 bits
Compression mode : Lossy
Stream size : 319 MiB (14%)
Alignment : Split accross interleaves
Interleave, duration : 42 ms (1.00 video frame)
Interleave, preload duratio : 500 ms
Service kind : Complete Main
. , .



..The.Post.(.).[2017.....HDRip].[MVO.(HDrezka.Studio)]+[Sub.Rus.Eng]+[Original.Eng].torrent
  ! ! 
:   [ : ] c?
MAGNET
MAGNET


.torrent

12 KB

: DHT
: - 83 , - 64
: 2,18 GB
- (: 0)
: 2
:
 FacebookTwitterLivejournal Liveinternet
 

 
: