Loading...
Error

Скачать Последний настоящий гангстер / The Last O.G (Сезон 01) (Кристофер Чулак, Ларри Тенг, Иэн Тойнтон) [2018, Комедия, HDTVRip] [MVO] (Jaskier) + Original торрент без регистрации

Статистика раздачи
Размер:  2,59 GB   |    Скачан:  171 раз
Сидов:  1  [  0 KB/s  ]  
 
 
 
Автор Сообщение

leon030982

[] 

Последний настоящий гангстер / The Last O.G
Год выпуска: 2018
Страна: США
Жанр: Комедия
Продолжительность: 00:25:00
Перевод: Профессиональный (многоголосый закадровый) | Jaskier

Режиссёр: Йорма Такконе

В ролях: Трэйси Морган, Тиффани Хэддиш, Седрик «Развлекатель», Аллен Мальдонадо, Райан Гол, Тейлор Мозби, Данте Хоагленд, Джоэль Марш Гарлэнд, Джино Венто, Дерек Гейнс

Описание: Когда человек творит опрометчивые и неверные поступки он ещё даже не подозревает, как это всё может повлиять на его дальнейшую жизнь, так как на примере произошло это с нашим героем. Трей в молодом возрасте попал в тюрьму, отсидев отрезок времени в пятнадцать лет он выходит с мест лишения свободы, за хорошее и исполнительное поведение. Он видит, как переменился его родимый район Нью-Йорка Бруклин, всё вокруг очень сильно поменялось, но это не все сюрпризы, которые ожидали парня. В юношестве, он встречался с девушкой, которая как оказалось, родила двух близнецов, но наш заключенный ничего не знал, что они появились на свет. Пока настоящий отец детей отсиживал срок, воспитанием и решением финансовых вопросов занимался нынешний муж Шей, за которого вскоре после того, как гангстера посадили, она вышла замуж. Как только реальный папа узнал о существовании бесценных детишек, он принимает меры по участию в их защите и обеспечению. Трейси был одушевлен, такой новостью, ведь для него это как лучики солнца в окошке. Теперь весь досуг ребят и самого мужчины очень изменится, ведь они приобрели родного папочку, а он своих драгоценных ребятишек. Наш герой вовсе не хочет возвращаться или совершать ошибки, которые были сделаны в молодости.

Качество: HDTVRip
Формат: AVI
Видео: XviD, ~ 1500 kbps, 720x400 (16:9), 23.976 fps
Аудио 1: MP3, 48,0 КГц, 2 ch, 128 kbps - Rus
Аудио 2: MP3, 48,0 КГц, 2 ch, 128 kbps - Eng
Переведено и озвучено: студией Jaskier
Общее
Полное имя                               : F:\Jaskier\The.Last.O.G Season 1 (HDTVRip l 400p l Jaskier)\The.Last.O.G.S01E01.HDTVRip.Jaskier.avi
Формат                                   : AVI
Формат/Информация                        : Audio Video Interleave
Размер файла                             : 270 Мбайт
Продолжительность                        : 21 м. 22 с.
Общий поток                              : 1769 Кбит/сек
Программа кодирования                    : VirtualDubMod 1.5.10.3 | www.virtualdub-fr.org || (build 2550/release)
Библиотека кодирования                   : VirtualDubMod build 2550/release

Видео
Идентификатор                            : 0
Формат                                   : MPEG-4 Visual
Профиль формата                          : Advanced Simple@L5
Настройки формата                        : BVOP2
Параметр BVOP формата                    : 2
Параметр QPel формата                    : Нет
Параметр GMC формата                     : Без точки перехода
Параметр матрицы формата                 : Default (MPEG)
Идентификатор кодека                     : XVID
Идентификатор кодека/Подсказка           : XviD
Продолжительность                        : 21 м. 22 с.
Битрейт                                  : 1499 Кбит/сек
Ширина                                   : 720 пикселей
Высота                                   : 400 пикселей
Соотношение сторон                       : 16:9
Частота кадров                           : 23,976 (24000/1001) кадра/сек
Цветовое пространство                    : YUV
Субдискретизация насыщенности            : 4:2:0
Битовая глубина                          : 8 бит
Тип развёртки                            : Прогрессивная
Метод сжатия                             : С потерями
Бит/(Пиксели*Кадры)                      : 0.217
Размер потока                            : 229 Мбайт (85%)
Библиотека кодирования                   : XviD 1.2.1 (UTC 2008-12-04)

Аудио #1
Идентификатор                            : 1
Формат                                   : MPEG Audio
Версия формата                           : Version 1
Профиль формата                          : Layer 3
Настройки формата                        : Joint stereo / MS Stereo
Идентификатор кодека                     : 55
Идентификатор кодека/Подсказка           : MP3
Продолжительность                        : 21 м. 22 с.
Вид битрейта                             : Постоянный
Битрейт                                  : 128 Кбит/сек
Каналы                                   : 2 канала
Частота                                  : 48,0 КГц
Частота кадров                           : 41,667 кадра/сек (1152 SPF)
Метод сжатия                             : С потерями
Размер потока                            : 19,6 Мбайт (7%)
Выравнивание                             : Соединение по промежуткам
Продолжительность промежутка             : 42  мс. (1,00 видеокадр)
Время предзагрузки промежутка            : 504  мс.
Библиотека кодирования                   : LAME3.100
Настройки программы                      : -m j -V 4 -q 3 -lowpass 17 -b 128

Аудио #2
Идентификатор                            : 2
Формат                                   : MPEG Audio
Версия формата                           : Version 1
Профиль формата                          : Layer 3
Настройки формата                        : Joint stereo / MS Stereo
Идентификатор кодека                     : 55
Идентификатор кодека/Подсказка           : MP3
Продолжительность                        : 21 м. 22 с.
Вид битрейта                             : Постоянный
Битрейт                                  : 128 Кбит/сек
Каналы                                   : 2 канала
Частота                                  : 48,0 КГц
Частота кадров                           : 41,667 кадра/сек (1152 SPF)
Метод сжатия                             : С потерями
Размер потока                            : 19,6 Мбайт (7%)
Выравнивание                             : Соединение по промежуткам
Продолжительность промежутка             : 42  мс. (1,00 видеокадр)
Время предзагрузки промежутка            : 504  мс.
Библиотека кодирования                   : LAME3.100
Настройки программы                      : -m j -V 4 -q 3 -lowpass 17 -b 128
Когда раздача ведётся путём добавления новых серий, при каждом добавлении создётся новый торрент. Чтобы начать докачку новой серии, пользователям необходимо сделать следующее:
(1) остановить скачивание,
(2) удалить старый торрент у себя из клиента (старые серии удалять не надо),
(3) скачать новый торрент и запустить его у себя в клиенте вместо старого, при этом указать клиенту путь в старую папку, куда и должно происходить скачивание новых серий.
Ваш клиент при этом должен произвести хеширование (проверку) старой папки (если не производит сам - помогите ему сделать это), и будет докачивать только те серии, которых у вас ещё нет. Старые серии при этом не удаляются, а продолжают раздаваться!
Eсли вы уже удалили старые серии, то предотвратить повторную закачку старых серий можно, отжав галочку в соответсвующих местах при запуске нового торрента. По возможности, желательно не удалять старые серии как можно дольше, чтобы релизёр не столько продолжал раздавать старые серии, а смог сконцентрироваться на новых.



Скачать Последний.настоящий.гангстер.The.Last.O.G.(Сезон.01).(Кристофер.Чулак.Ларри.Тенг.Иэн.Тойнтон).[2018.Комедия.HDTVRip].[MVO].(Jaskier).+.Original.torrent без регистрации
Золото ЗОЛОТАЯ РАЗДАЧА! СКАЧАННОЕ НЕ ЗАСЧИТЫВАЕТСЯ! Золото
Дата: Зарегистрирован   [ Тип: внутренний ] Как тут cкачать?
MAGNET ссылка
MAGNET ссылка


Скачать .torrent

14 KB

Статус: проверено DHT
Скачан: торрент - 171 раз, раздача полностью - 6 раз
Размер: 2,59 GB
Оценка:  - (Голосов: 0)
Поблагодарили: 0
Поделиться ссылкой на эту раздачу с друзьями:
В контактеFacebookОдноклассникиTwitterLivejournalМой МирLiveinternet
 

 
Показать сообщения:    


Вы не можете начинать темы
Вы не можете отвечать на сообщения
Вы не можете редактировать свои сообщения
Вы не можете удалять свои сообщения
Вы не можете голосовать в опросах
Вы не можете прикреплять файлы к сообщениям
Вы можете скачивать файлы