Loading...
Error

Скачать Берёзка (01-16 из 16) (Александр Баранов) [2018,мелодрама, SATRip-AVC] торрент без регистрации

Статистика раздачи
Размер:  9,77 GB   |    Скачан:  313 раз
Сидов:  1  [  0 KB/s  ]  
 
 
 
Автор Сообщение

сашок33

[] 

Берёзка





Год выпуска: 2018
Производство: Россия,кинокомпания "Русское"
Жанр:мелодрама
Продолжительность: 00:51:00
Субтитры: нет



Режиссёр: Александр Баранов



В ролях: Любовь Константинова, Ольга Бобкова, Алёна Коломина, Мария Порошина, Лидия Вележева, Алексей Серебряков, Михаил Ефремов, Нина Усатова, Надежда Маркина, Евгений Сидихин, Сергей Шакуров, Михаил Пшеничный, Пётр Рыков, Анастасия Стежко, Татьяна Чердынцева, Евгения Каверау, Александр Никитин , Анастасия Крылова , Анар Халилов, Александр Асташёнок, Маруся Пестунова, Марк Богатырёв, Сергей Уусталу, Майя Горбань, Антон Феоктистов

Описание:
Середина 80-х годов. «Берёзка» знаменита во всем мире. Попасть в ансамбль – мечта многих девушек. Но это задача под силу лишь самым талантливым и амбициозным!
Три героини пытаются примкнуть к знаменитому танцевальному действу, но девушкам предстоит выдержать испытание завистью, немыслимой конкуренцией ради покорения заветной цели. Для того, чтобы их мечта стала реальностью они не остановятся ни перед чем. Желая собственной славы, они принимают непростые правила, царящие за кулисами – все то, о чем не догадываются зрители в зале, аплодирующие знаменитому «плывущему» шагу, тайна которого до сих пор хранится в строгом секрете!







Качество: SATRip-AVC
Формат: MKV
Видео кодек: H.264
Аудио кодек: AAC
Видео: MPEG4 Video (H264), 720x400, 25fps,1500 Kbps,bit/pixel 0.208
Аудио: AAC 48000Hz, stereo, 192kbps,2 ch



Общее
Уникальный идентификатор : 226937919011499568373127349402717429183 (0xAABAA74386B1990295F1DFD8CA089DBF)
Полное имя : E:\Берёзка\01 серия_Берёзка_rip by_Aleksan55.mkv
Формат : Matroska
Версия формата : Version 2
Размер файла : 627 Мбайт
Продолжительность : 51 м. 46 с.
Общий поток : 1694 Кбит/сек
Дата кодирования : UTC 2018-04-09 14:02:23
Программа кодирования : mkvmerge v7.8.0 ('River Man') 32bit built on Apr 3 2015 12:11:22
Библиотека кодирования : libebml v1.3.1 + libmatroska v1.4.2

Видео
Идентификатор : 1
Формат : AVC
Формат/Информация : Advanced Video Codec
Профиль формата : High@L4.1
Параметр CABAC формата : Да
Параметр ReFrames формата : 14 кадров
Идентификатор кодека : V_MPEG4/ISO/AVC
Продолжительность : 51 м. 46 с.
Битрейт : 1500 Кбит/сек
Ширина : 720 пикселей
Высота : 400 пикселей
Соотношение сторон : 16:9
Режим частоты кадров : Постоянный
Частота кадров : 25,000 кадров/сек
Цветовое пространство : YUV
Субдискретизация насыщенности : 4:2:0
Битовая глубина : 8 бит
Тип развёртки : Прогрессивная
Бит/(Пиксели*Кадры) : 0.208
Размер потока : 544 Мбайт (87%)
Библиотека кодирования : x264 core 146 r2538 121396c
Настройки программы : cabac=1 / ref=14 / deblock=1:-2:-2 / analyse=0x3:0x133 / me=umh / subme=9 / psy=1 / psy_rd=1.00:0.15 / mixed_ref=0 / me_range=32 / chroma_me=1 / trellis=2 / 8x8dct=1 / cqm=0 / deadzone=21,11 / fast_pskip=1 / chroma_qp_offset=-3 / threads=3 / lookahead_threads=3 / sliced_threads=0 / nr=0 / decimate=0 / interlaced=0 / bluray_compat=0 / constrained_intra=0 / bframes=14 / b_pyramid=2 / b_adapt=1 / b_bias=0 / direct=3 / weightb=1 / open_gop=0 / weightp=2 / keyint=250 / keyint_min=25 / scenecut=40 / intra_refresh=0 / rc_lookahead=40 / rc=2pass / mbtree=1 / bitrate=1500 / ratetol=1.0 / qcomp=0.60 / qpmin=0 / qpmax=39 / qpstep=4 / cplxblur=20.0 / qblur=0.5 / ip_ratio=1.40 / aq=1:1.20
Default : Да
Forced : Нет
Цветовой диапазон : Limited
Основные цвета : BT.601 PAL
Характеристики трансфера : BT.470 System B, BT.470 System G
Коэффициенты матрицы : BT.601

Аудио
Идентификатор : 2
Формат : AC-3
Формат/Информация : Audio Coding 3
Расширение режима : CM (complete main)
Параметр Endianness формата : Big
Идентификатор кодека : A_AC3
Продолжительность : 51 м. 46 с.
Вид битрейта : Постоянный
Битрейт : 192 Кбит/сек
Каналы : 2 канала
Расположение каналов : Front: L R
Частота : 48,0 КГц
Частота кадров : 31,250 кадров/сек (1536 spf)
Битовая глубина : 16 бит
Метод сжатия : С потерями
Размер потока : 71,1 Мбайт (11%)
Default : Да
Forced : Нет
Внимание! Раздача ведётся путём добавления новых серий; при каждом добавлении создаётся новый торрент.
Чтобы начать докачку новой серии, пользователям необходимо сделать следующее:
1. Остановить скачивание;
2. Удалить старый торрент у себя из клиента (старые серии удалять не надо);
3. Скачать новый торрент и запустить его у себя в клиенте вместо старого, при этом указать клиенту путь в старую папку куда и должно происходить скачивание новых серий. Ваш клиент при этом должен произвести хеширование (проверку) старой папки и будет докачивать только те серии, которых у вас ещё нет. Старые серии при этом не удаляются, а продолжают раздаваться! Eсли вы уже удалили старые серии, то предотвратить повторную закачку старых серий можно, отжав галочку в соответствующих местах при запуске нового торрента.





Добавлены 15-16 серия.



Скачать Берёзка.(01-16.из.16).(Александр.Баранов).[2018.мелодрама.SATRip-AVC].torrent без регистрации
Золото ЗОЛОТАЯ РАЗДАЧА! СКАЧАННОЕ НЕ ЗАСЧИТЫВАЕТСЯ! Золото
Дата: Зарегистрирован   [ Тип: внутренний ] Как тут cкачать?
MAGNET ссылка
MAGNET ссылка


Скачать .torrent

51 KB

Статус: * не проверено
Скачан: торрент - 313 раз, раздача полностью - 67 раз
Размер: 9,77 GB
Оценка:  - (Голосов: 0)
Поблагодарили: 4
Поделиться ссылкой на эту раздачу с друзьями:
В контактеFacebookОдноклассникиTwitterLivejournalМой МирLiveinternet
 

 
Показать сообщения:    


Вы не можете начинать темы
Вы не можете отвечать на сообщения
Вы не можете редактировать свои сообщения
Вы не можете удалять свои сообщения
Вы не можете голосовать в опросах
Вы не можете прикреплять файлы к сообщениям
Вы можете скачивать файлы