Loading...
Error

Скачать Большая игра / Molly's Game (Аарон Соркин) [2017, Драма, биография, BDRip][1080p] [DUB Лицензия] [R.G. GoldenShara] торрент без регистрации

Статистика раздачи
Размер:  4,36 GB   |    Скачан:  103 раза
Сидов:  2  [  0 KB/s  ]  
 
 
 
Автор Сообщение

Magnetto83

[] 


Большая игра / Molly's Game


Год выпуска: 2017
Выпущено: США, Китай | STX Entertainment, Huayi Brothers Pictures, The Mark Gordon Company
Жанр: Драма, биография
Продолжительность: 02:20:58
Перевод: Профессиональный (полное дублирование) | Blu-ray RUS |
Субтитры: Русские (Полные), Английские (Full+SHD+SHD Colored)
Навигация по главам: Сохранены оригинальные главы как на Blu-ray

Слоган: «Deal with her»

Режиссер: Аарон Соркин

В ролях: Джессика Честейн, Идрис Эльба, Кевин Костнер, Майкл Сера, Джереми Стронг, Крис О`Дауд, Дж.С. МакКензи, Брайан Д`Арси Джеймс, Билл Кэмп, Грэм Грин

Описание: Молли Блум выросла с двумя братьями, каждый из которых добился колоссальных успехов в выбранных ими областях. Естественно, при таком примере девушке не оставалось ничего иного, как попытаться если и не стать лучше них, то хотя бы сравняться в достижениях. Стезей для покорения первых газетных полос стал фристайл, в котором Молли показывала неплохие успехи и даже претендовала на место в олимпийской команде США перед играми в Солт-Лейк-Сити. Увы, невероятный несчастный случай, шанс которому был один на миллион, поставил крест на ее спортивной карьере, и мисс Блум пришлось искать новую цель в жизни. По совету отца девушка решила поступить в юридическую школу, но волею судеб оказалась втянута в организацию подпольных покерных игр, открыв для себя мир очень больших и легких денег, совершенно позабыв, что бесплатный сыр бывает только в мышеловке.



Возраст: 18+ (зрителям, достигшим 18 лет. запрещено для детей)
Рейтинг MPAA: R (лицам до 17 лет обязательно присутствие взрослого)

Качество: BDRip 1080p
Формат: MKV
Видео кодек: H.264
Аудио кодек: AC3
Видео: 1920x800 (2.40:1), 4263 Кбит/с, 23.976 fps
Аудио: Русский Dolby Digital 5.1 (448 Кбит/с)


x264 [info]: frame I:1998 Avg QP:13.71 size:163270
x264 [info]: frame P:43324 Avg QP:16.29 size: 42359
x264 [info]: frame B:157459 Avg QP:18.44 size: 13011
x264 [info]: consecutive B-frames: 2.4% 2.6% 12.3% 9.0% 15.2% 45.7% 7.3% 2.4% 3.2%
x264 [total]: encoded 202781 frames, 1.32 fps, 3982.22 kb/s



General
Complete name : I:\Видео\Мои Рипы 1080p\Кино-Хиты 2017\Большая игра 2017 Dub Rus BDRip 1080p.mkv
Format : Matroska
Format version : Version 2
File size : 4.36 GiB
Duration : 2h 20mn
Overall bit rate : 4 431 Kbps
Movie name : Большая игра 2017 Dub Rus BDRip 1080p By R.G. GoldenShara
Encoded date : UTC 2018-06-19 10:21:08
Writing application : mkvmerge v5.2.0 ('I can't explain') built on Dec 18 2011 18:12:03
Writing library : libebml v1.2.3 + libmatroska v1.3.0
Attachements : Cover

Video
ID : 1
Format : AVC
Format/Info : Advanced Video Codec
Format profile : High@L4.1
Format settings, CABAC : Yes
Format settings, ReFrames : 5 frames
Codec ID : V_MPEG4/ISO/AVC
Duration : 2h 20mn
Bit rate : 3 987 Kbps
Width : 1 920 pixels
Height : 800 pixels
Display aspect ratio : 2.40:1
Frame rate mode : Constant
Frame rate : 23.976 fps
Color space : YUV
Chroma subsampling : 4:2:0
Bit depth : 8 bits
Scan type : Progressive
Bits/(Pixel*Frame) : 0.108
Stream size : 3.83 GiB (88%)
Title : Большая игра 2017 BDRip 1080p By Magnеtto 83
Writing library : x264 core 146 r2538 121396c
Encoding settings : cabac=1 / ref=5 / deblock=1:-1:-1 / analyse=0x3:0x113 / me=umh / subme=10 / psy=1 / psy_rd=1.00:0.00 / mixed_ref=1 / me_range=32 / chroma_me=1 / trellis=2 / 8x8dct=1 / cqm=0 / deadzone=21,11 / fast_pskip=0 / chroma_qp_offset=-2 / threads=3 / lookahead_threads=1 / sliced_threads=0 / nr=0 / decimate=1 / interlaced=0 / bluray_compat=0 / constrained_intra=0 / bframes=8 / b_pyramid=2 / b_adapt=2 / b_bias=0 / direct=3 / weightb=1 / open_gop=0 / weightp=2 / keyint=250 / keyint_min=23 / scenecut=40 / intra_refresh=0 / rc=2pass / mbtree=0 / bitrate=3987 / ratetol=1.0 / qcomp=0.60 / qpmin=0 / qpmax=69 / qpstep=4 / cplxblur=20.0 / qblur=0.5 / ip_ratio=1.40 / pb_ratio=1.30 / aq=2:1.00
Language : English
Default : Yes
Forced : No

Audio
ID : 2
Format : AC-3
Format/Info : Audio Coding 3
Mode extension : CM (complete main)
Format settings, Endianness : Big
Codec ID : A_AC3
Duration : 2h 20mn
Bit rate mode : Constant
Bit rate : 448 Kbps
Channel(s) : 6 channels
Channel positions : Front: L C R, Side: L R, LFE
Sampling rate : 48.0 KHz
Compression mode : Lossy
Stream size : 452 MiB (10%)
Title : DD 5.1 @ 448 kbps - Дубляж | Blu-ray RUS |
Language : Russian
Default : Yes
Forced : No

Text #1
ID : 3
Format : UTF-8
Codec ID : S_TEXT/UTF8
Codec ID/Info : UTF-8 Plain Text
Title : Полные| Focs studios |
Language : Russian
Default : No
Forced : No

Text #2
ID : 4
Format : UTF-8
Codec ID : S_TEXT/UTF8
Codec ID/Info : UTF-8 Plain Text
Title : Full
Language : English
Default : No
Forced : No

Text #3
ID : 5
Format : UTF-8
Codec ID : S_TEXT/UTF8
Codec ID/Info : UTF-8 Plain Text
Title : SDH
Language : English
Default : No
Forced : No

Menu
00:00:00.000 : :Chapter 1
00:05:54.479 : :Chapter 2
00:09:55.052 : :Chapter 3
00:16:53.137 : :Chapter 4
00:24:03.108 : :Chapter 5
00:29:16.504 : :Chapter 6
00:39:01.589 : :Chapter 7
00:48:11.346 : :Chapter 8
00:54:00.153 : :Chapter 9
01:04:07.260 : :Chapter 10
01:11:10.390 : :Chapter 11
01:18:03.679 : :Chapter 12
01:23:10.986 : :Chapter 13
01:29:09.927 : :Chapter 14
01:34:19.904 : :Chapter 15
01:44:30.430 : :Chapter 16
01:53:43.274 : :Chapter 17
02:01:38.249 : :Chapter 18
02:07:20.466 : :Chapter 19
02:13:24.997 : :Chapter 20







Скачать Большая.игра.Molly's.Game.(Аарон.Соркин).[2017.Драма.биография.BDRip][1080p].[DUB.Лицензия].[R.G.GoldenShara].torrent без регистрации
Золото ЗОЛОТАЯ РАЗДАЧА! СКАЧАННОЕ НЕ ЗАСЧИТЫВАЕТСЯ! Золото
Дата: Зарегистрирован   [ Тип: внутренний ] Как тут cкачать?
MAGNET ссылка
MAGNET ссылка


Скачать .torrent

11 KB

Статус: проверено
Скачан: торрент - 103 раз, раздача полностью - 35 раз
Размер: 4,36 GB
Оценка:  5 (Голосов: 2)
Поблагодарили: 8
Поделиться ссылкой на эту раздачу с друзьями:
В контактеFacebookОдноклассникиTwitterLivejournalМой МирLiveinternet
 

 

Kitaec1

[] 

А где скриншоты и обложка? ми и тд.
 

Magnetto83

[] 

А кто его знает? Глюки на сайте вроде..... По этому и новых релизов нету.... Грустно как то...
 

sobmaster

[] 

М-да, неприятно... ВВ-коды не работают, открывается только текст...
 

Kitaec1

[] 

Ждем ремонта!
 

Kitaec1

[] 

Дайте знать админам об этом.
 

Natasha

[] 

Это все блокировка телеги боком вылазит!!
 

sobmaster

[] 

Natasha писал(а):

Это все блокировка телеги боком вылазит!!
Как от этого избавиться?
 

Magnetto83

[] 

ab Обнрвлено! Звук заменен на лицензию | Blu-ray RUS |. ad
 
Показать сообщения:    


Вы не можете начинать темы
Вы не можете отвечать на сообщения
Вы не можете редактировать свои сообщения
Вы не можете удалять свои сообщения
Вы не можете голосовать в опросах
Вы не можете прикреплять файлы к сообщениям
Вы можете скачивать файлы