Loading...
Error

Скачать Патрик Мелроуз / Patrick Melrose (Сезон 01) (Эдвард Бергер) [2018, Драма, WEB-DL 720p] 4x[MVO] (LostFilm, Jaskier, FilmsClub, NewStudio) + [Original] торрент без регистрации

Статистика раздачи
Размер:  10,47 GB   |    Скачан:  117 раз
Сидов:  1  [  0 KB/s  ]  
 
 
 
Автор Сообщение

leon030982

[] 

Патрик Мелроуз / Patrick Melrose


Год выпуска: 2018
Страна: Великобритания
Жанр: драма
Продолжительность: ~ 01:00:00
Перевод #1: Профессиональный (многоголосый закадровый) | LostFilm
Перевод #2: Профессиональный (многоголосый закадровый) | Jaskier *без цензуры*
Перевод #3: Профессиональный (многоголосый закадровый) | FilmsClub
Перевод #4: Профессиональный (многоголосый закадровый) | NewStudio

Режиссёр: Эдвард Бергер

В ролях: Бенедикт Камбербэтч, Дженнифер Джейсон Ли, Джессика Рэйн, Хьюго Уивинг, Прасанна Пуванараджа, Пип Торренс, Анна Маделей, Индира Варма, Дейнтон Андерсон и др.

Описание: Патрик Мелроуз — плейбой, аристократ и алкоголик. Несмотря на деньги, жизнь Патрика сложно назвать легкой и безмятежной. Все детство ему пришлось терпеть жестокое отношение отца, пока мать предпочитала не вмешиваться. Подросший Патрик находит в себе силы пробраться в высший свет, но вместе с этим начинается его путь к саморазрушению



Качество: WEB-DL 720p
Формат: MKV
Видео: X264, ~ 2500 kbps, 1280x720 (16:9), 23.976 fps
Аудио 1: (EAC3, 6 ch, 640 Кбит/с) - LostFilm
Аудио 2: (AC3, 6 ch, 384 Кбит/с) - Jaskier
Аудио 3: (AC3, 6 ch, 384 Кбит/с) - FilmsClub
Аудио 4: (AC3, 6 ch, 384 Кбит/с) - NewStudio
Аудио 5: (EAC3, 6 ch, 640 Кбит/с) - Oiginal
Субтитры: Русские (FOCS), английские (full и SDH)
General
Unique ID : 194276426445231530463545758879699754389 (0x9228475A0F1BD79DAFE98C63F1A0DD95)
Complete name : F:\Patrick.Melrose_s01_720p_LostFilm\Patrick.Melrose_s01e01.WEB-DL.720p.LostFilm.mkv
Format : Matroska
Format version : Version 4 / Version 2
File size : 1.68 GiB
Duration : 1 h 3 min
Overall bit rate mode : Variable
Overall bit rate : 3 767 kb/s
Encoded date : UTC 2018-05-16 13:51:10
Writing application : mkvmerge v18.0.0 ('Apricity') 64-bit
Writing library : libebml v1.3.5 + libmatroska v1.4.8

Video
ID : 1
Format : AVC
Format/Info : Advanced Video Codec
Format profile : High@L3.1
Format settings : CABAC / 5 Ref Frames
Format settings, CABAC : Yes
Format settings, ReFrames : 5 frames
Codec ID : V_MPEG4/ISO/AVC
Duration : 1 h 3 min
Bit rate mode : Variable
Bit rate : 2 484 kb/s
Maximum bit rate : 4 500 kb/s
Width : 1 280 pixels
Height : 720 pixels
Display aspect ratio : 16:9
Frame rate mode : Constant
Frame rate : 23.976 (24000/1001) FPS
Color space : YUV
Chroma subsampling : 4:2:0
Bit depth : 8 bits
Scan type : Progressive
Bits/(Pixel*Frame) : 0.112
Stream size : 1.11 GiB (66%)
Language : English
Default : Yes
Forced : No
Color range : Limited
Color primaries : BT.709
Transfer characteristics : BT.709
Matrix coefficients : BT.709

Audio #1
ID : 2
Format : E-AC-3
Format/Info : Enhanced Audio Coding 3
Codec ID : A_EAC3
Duration : 1 h 3 min
Bit rate mode : Constant
Bit rate : 640 kb/s
Channel(s) : 6 channels
Channel positions : Front: L C R, Side: L R, LFE
Sampling rate : 48.0 kHz
Frame rate : 187.500 FPS (256 SPF)
Compression mode : Lossy
Stream size : 292 MiB (17%)
Title : DD5.1 LostFilm
Language : Russian
Service kind : Complete Main
Default : Yes
Forced : No

Audio #2
ID : 3
Format : E-AC-3
Format/Info : Enhanced Audio Coding 3
Codec ID : A_EAC3
Duration : 1 h 3 min
Bit rate mode : Constant
Bit rate : 640 kb/s
Channel(s) : 6 channels
Channel positions : Front: L C R, Side: L R, LFE
Sampling rate : 48.0 kHz
Frame rate : 187.500 FPS (256 SPF)
Compression mode : Lossy
Stream size : 292 MiB (17%)
Title : DD5.1 Original
Language : English
Service kind : Complete Main
Default : No
Forced : No

Text #1
ID : 4
Format : UTF-8
Codec ID : S_TEXT/UTF8
Codec ID/Info : UTF-8 Plain Text
Duration : 1 h 1 min
Bit rate : 111 b/s
Count of elements : 881
Stream size : 50.3 KiB (0%)
Title : FOCS
Language : Russian
Default : No
Forced : No

Text #2
ID : 5
Format : UTF-8
Codec ID : S_TEXT/UTF8
Codec ID/Info : UTF-8 Plain Text
Duration : 1 h 1 min
Bit rate : 65 b/s
Count of elements : 905
Stream size : 29.2 KiB (0%)
Language : English
Default : No
Forced : No

Text #3
ID : 6
Format : UTF-8
Codec ID : S_TEXT/UTF8
Codec ID/Info : UTF-8 Plain Text
Duration : 1 h 1 min
Bit rate : 75 b/s
Count of elements : 1070
Stream size : 34.5 KiB (0%)
Title : SDH
Language : English
Default : No
Forced : No
Когда раздача ведётся путём добавления новых серий, при каждом добавлении создётся новый торрент. Чтобы начать докачку новой серии, пользователям необходимо сделать следующее:
(1) остановить скачивание,
(2) удалить старый торрент у себя из клиента (старые серии удалять не надо),
(3) скачать новый торрент и запустить его у себя в клиенте вместо старого, при этом указать клиенту путь в старую папку, куда и должно происходить скачивание новых серий.
Ваш клиент при этом должен произвести хеширование (проверку) старой папки (если не производит сам - помогите ему сделать это), и будет докачивать только те серии, которых у вас ещё нет. Старые серии при этом не удаляются, а продолжают раздаваться!
Eсли вы уже удалили старые серии, то предотвратить повторную закачку старых серий можно, отжав галочку в соответсвующих местах при запуске нового торрента. По возможности, желательно не удалять старые серии как можно дольше, чтобы релизёр не столько продолжал раздавать старые серии, а смог сконцентрироваться на новых.



Скачать Патрик.Мелроуз.Patrick.Melrose.(Сезон.01).(Эдвард.Бергер).[2018.Драма.WEB-DL.720p].4x[MVO].(LostFilm.Jaskier.FilmsClub.NewStudio).+.[Original].torrent без регистрации
Золото ЗОЛОТАЯ РАЗДАЧА! СКАЧАННОЕ НЕ ЗАСЧИТЫВАЕТСЯ! Золото
Дата: Зарегистрирован   [ Тип: внутренний ] Как тут cкачать?
MAGNET ссылка
MAGNET ссылка


Скачать .torrent

53 KB

Статус: проверено DHT
Скачан: торрент - 117 раз, раздача полностью - 8 раз
Размер: 10,47 GB
Оценка:  - (Голосов: 0)
Поблагодарили: 0
Поделиться ссылкой на эту раздачу с друзьями:
В контактеFacebookОдноклассникиTwitterLivejournalМой МирLiveinternet
 

 
Показать сообщения:    


Вы не можете начинать темы
Вы не можете отвечать на сообщения
Вы не можете редактировать свои сообщения
Вы не можете удалять свои сообщения
Вы не можете голосовать в опросах
Вы не можете прикреплять файлы к сообщениям
Вы можете скачивать файлы