Loading...
Error

Скачать Чёрная Пантера / Black Panther (Райан Куглер) [2018, Фантастика, боевик, приключения, супергерой, BDRip][1080p] [Dub Лицензия] [R.G. GoldenShara] торрент без регистрации

Статистика раздачи
Размер:  4,37 GB   |    Скачан:  228 раз
Сидов:  6  [  0 KB/s  ]  
 
 
 
Автор Сообщение

Magnetto83

[] 


Чёрная Пантера / Black Panther


Год выпуска: 2018
Выпущено: США | Marvel Studios Inc., Walt Disney Pictures
Жанр: Фантастика, боевик, приключения, супергерой
Продолжительность: 02:14:44
Перевод: Профессиональный (полное дублирование) | Blu-ray EUR |
Субтитры: Русские (Форс.+Полные), Английские (Full+SHD+SHD Colored)
Навигация по главам: Сохранены оригинальные главы как на Blu-ray

Слоган: «Да здравствует король»

Режиссер: Райан Куглер

В ролях: Чэдвик Боузмэн, Майкл Б. Джордан, Лупита Нионго, Данай Джекесай Гурира, Мартин Фриман, Дэниэл Калуя, Летишиа Райт, Уинстон Дьюк, Стерлинг К. Браун, Анджела Бассетт

Описание: Несколько веков назад на территорию пяти враждующих африканских племен упал метеорит из вибраниума - редкого металла, способного поглощать вибрацию и направленную на него кинетическую энергию. Один из воинов съедает несколько соцветий "сердцевидной травы", пораженной внеземным сплавом. Он получает неестественные способности, становится первой "Черной пантерой" и объединяет все племена (кроме гордых сыновей гор) в один народ, заложив основы единого государства под названием Ваканда. Жить стало лучше, жить стало веселее. Со временем примитивные пастухи освоили самые передовые технологии с использованием вибраниума, что позволило им достичь рекордных показателей по настригам и надоям, кардинально увеличить срок эксплуатации охотничьих копий, а также отказаться от дотаций и братских рук помощи. И если кто-то извне все-таки решался посягнуть на национальное достояние вакандцев - Черная пантера моментально пресекала недвусмысленные поползновения, стоя на страже мира и прогресса. Но теперь легендарному духу саванны предстоит столкнуться с новым врагом, не уступающим в силе и ловкости главному защитнику Ваканды.



Возраст: 16+ (зрителям, достигшим 16 лет)
Рейтинг MPAA: PG-13 (детям до 13 лет просмотр нежелателен)

Качество: BDRip 1080p
Формат: MKV
Видео кодек: H.264
Аудио кодек: AC3
Видео: 1920x804 (2.40:1), 4235 Кбит/с, 23.976 fps
Аудио: Русский Dolby Digital 5.1 (448 Кбит/с)


x264 [info]: frame I:1788 Avg QP:16.58 size:155097
x264 [info]: frame P:53799 Avg QP:19.94 size: 40447
x264 [info]: frame B:137975 Avg QP:22.16 size: 12916
x264 [info]: consecutive B-frames: 5.4% 5.9% 19.6% 22.4% 17.8% 24.4% 3.0% 0.6% 0.8%
x264 [total]: encoded 193562 frames, 1.23 fps, 4197.04 kb/s



General
Complete name : G:\Видео\Marvel 1080p\Черная Пантера 2018 Dub Rus BDRip 1080p.mkv
Format : Matroska
Format version : Version 4 / Version 2
File size : 4.37 GiB
Duration : 2h 14mn
Overall bit rate : 4 647 Kbps
Movie name : Черная пантера 2018 Dub Rus BDRip 1080p By R.G. GoldenShara
Encoded date : UTC 2018-05-28 19:16:26
Writing application : mkvmerge v7.0.0 ('Where We Going') 64bit built on Jun 9 2014 15:16:27
Writing library : libebml v1.3.0 + libmatroska v1.4.1
Attachements : Cover
DURATION : 02:14:16.464000000
NUMBER_OF_FRAMES : 1442
NUMBER_OF_BYTES : 53775
_STATISTICS_WRITING_APP : mkvmerge v7.0.0 ('Where We Going') 64bit built on Jun 9 2014 15:16:27
_STATISTICS_WRITING_DATE_UTC : 2018-05-28 19:16:26
_STATISTICS_TAGS : BPS DURATION NUMBER_OF_FRAMES NUMBER_OF_BYTES

Video
ID : 1
Format : AVC
Format/Info : Advanced Video Codec
Format profile : High@L4.1
Format settings, CABAC : Yes
Format settings, ReFrames : 5 frames
Codec ID : V_MPEG4/ISO/AVC
Duration : 2h 14mn
Bit rate : 4 198 Kbps
Width : 1 920 pixels
Height : 804 pixels
Display aspect ratio : 2.40:1
Frame rate mode : Constant
Frame rate : 23.976 fps
Color space : YUV
Chroma subsampling : 4:2:0
Bit depth : 8 bits
Scan type : Progressive
Bits/(Pixel*Frame) : 0.113
Stream size : 3.86 GiB (88%)
Title : Черная пантера 2018 BDRip 1080p
Writing library : x264 core 146 r2538 121396c
Encoding settings : cabac=1 / ref=5 / deblock=1:-1:-1 / analyse=0x3:0x113 / me=umh / subme=10 / psy=1 / psy_rd=1.00:0.00 / mixed_ref=1 / me_range=32 / chroma_me=1 / trellis=2 / 8x8dct=1 / cqm=0 / deadzone=21,11 / fast_pskip=0 / chroma_qp_offset=-2 / threads=3 / lookahead_threads=1 / sliced_threads=0 / nr=0 / decimate=1 / interlaced=0 / bluray_compat=0 / constrained_intra=0 / bframes=8 / b_pyramid=2 / b_adapt=2 / b_bias=0 / direct=3 / weightb=1 / open_gop=0 / weightp=2 / keyint=250 / keyint_min=23 / scenecut=40 / intra_refresh=0 / rc=2pass / mbtree=0 / bitrate=4198 / ratetol=1.0 / qcomp=0.60 / qpmin=0 / qpmax=69 / qpstep=4 / cplxblur=20.0 / qblur=0.5 / ip_ratio=1.40 / pb_ratio=1.30 / aq=2:1.00
Language : English
Default : Yes
Forced : No

Audio
ID : 2
Format : AC-3
Format/Info : Audio Coding 3
Mode extension : CM (complete main)
Format settings, Endianness : Big
Codec ID : A_AC3
Duration : 2h 14mn
Bit rate mode : Constant
Bit rate : 448 Kbps
Channel(s) : 6 channels
Channel positions : Front: L C R, Side: L R, LFE
Sampling rate : 48.0 KHz
Compression mode : Lossy
Stream size : 431 MiB (10%)
Title : DD 5.1 @ 448 kbps - Дубляж | Blu-ray 3D EUR |
Language : Russian
Default : Yes
Forced : No

Text #1
ID : 3
Format : UTF-8
Codec ID : S_TEXT/UTF8
Codec ID/Info : UTF-8 Plain Text
Title : Форс.
Language : Russian
Default : Yes
Forced : No

Text #2
ID : 4
Format : UTF-8
Codec ID : S_TEXT/UTF8
Codec ID/Info : UTF-8 Plain Text
Title : Полные | Blu-ray 3D EUR |
Language : Russian
Default : No
Forced : No

Text #3
ID : 5
Format : UTF-8
Codec ID : S_TEXT/UTF8
Codec ID/Info : UTF-8 Plain Text
Title : Полные | Студия Фокс |
Language : Russian
Default : No
Forced : No

Text #4
ID : 6
Format : UTF-8
Codec ID : S_TEXT/UTF8
Codec ID/Info : UTF-8 Plain Text
Title : Full
Language : English
Default : No
Forced : No

Text #5
ID : 7
Format : UTF-8
Codec ID : S_TEXT/UTF8
Codec ID/Info : UTF-8 Plain Text
Title : SDH
Language : English
Default : No
Forced : No

Text #6
ID : 8
Format : UTF-8
Codec ID : S_TEXT/UTF8
Codec ID/Info : UTF-8 Plain Text
Title : SDH-Colored
Language : English
Default : No
Forced : No

Menu
00:00:00.000 : :00:00:00.000
00:06:56.291 : :00:06:56.291
00:12:02.805 : :00:12:02.805
00:19:12.360 : :00:19:12.360
00:28:32.961 : :00:28:32.961
00:33:11.698 : :00:33:11.698
00:40:57.497 : :00:40:57.497
00:48:34.036 : :00:48:34.036
00:53:46.098 : :00:53:46.098
01:01:57.339 : :01:01:57.339
01:08:33.026 : :01:08:33.026
01:16:46.769 : :01:16:46.769
01:22:24.022 : :01:22:24.022
01:31:21.434 : :01:31:21.434
01:41:15.361 : :01:41:15.361
01:50:56.483 : :01:50:56.483
01:59:16.941 : :01:59:16.941
02:02:43.648 : :02:02:43.648







Скачать Чёрная.Пантера.Black.Panther.(Райан.Куглер).[2018.Фантастика.боевик.приключения.супергерой.BDRip][1080p].[Dub.Лицензия].[R.G.GoldenShara].torrent без регистрации
Золото ЗОЛОТАЯ РАЗДАЧА! СКАЧАННОЕ НЕ ЗАСЧИТЫВАЕТСЯ! Золото
Дата: Зарегистрирован   [ Тип: внутренний ] Как тут cкачать?
MAGNET ссылка
MAGNET ссылка


Скачать .torrent

11 KB

Статус: проверено
Скачан: торрент - 228 раз, раздача полностью - 217 раз
Размер: 4,37 GB
Оценка:  4,7 (Голосов: 9)
Поблагодарили: 20
Поделиться ссылкой на эту раздачу с друзьями:
В контактеFacebookОдноклассникиTwitterLivejournalМой МирLiveinternet
 

 

копылов геннадий николаев

[] 

Спасибо!ждал именно от Вас!!! az
 

Magnetto83

[] 

ab Пожалуйста!!! ad
 

mORFEY333

[] 

спс, норм от Magnetto83
 
Показать сообщения:    


Вы не можете начинать темы
Вы не можете отвечать на сообщения
Вы не можете редактировать свои сообщения
Вы не можете удалять свои сообщения
Вы не можете голосовать в опросах
Вы не можете прикреплять файлы к сообщениям
Вы можете скачивать файлы