Loading...
Error

Скачать Рассказ / The Tale (Дженнифер Фокс) [2018, Триллер, драма, детектив, WEB-DL 1080p] [MVO] (cтудия "Кравец-Рекордз") торрент без регистрации

Статистика раздачи
Размер:  8,99 GB   |    Скачан:  81 раз
Сидов:  1  [  0 KB/s  ]  
 
 
 
Автор Сообщение

leon030982

[] 

Информация о фильме

Название: Рассказ
Оригинальное название: The Tale
Год выпуска: 2018
Страна: США, Германия
Студия: Gamechanger Films, A Luminous Mind Production, Blackbird Films
Жанр: триллер, драма, детектив
Продолжительность: 01:54:58
Перевод: Профессиональный (многоголосый, закадровый) cтудия "Кравец-Рекордз"

Режиссер: Дженнифер Фокс

В ролях: Элизабет Дебики (Mrs. G), Лора Дерн (Jennifer), Джон Хёрд (Bill - Older), Джейсон Риттер (Bill), Эллен Бёрстин (Nettie), Фрэнсис Конрой (Mrs. G - Older), Коммон (Martin), Лаура Аллен (Nadine), Челси Элден (Samantha), Изабелла Амара (Franny), Изабель Нелисс (Jenny), Мэттью Раух (Aaron)



О фильме: Автобиографическая драма документалиста Дженнифер Фокс с мощной ролью Лоры Дерн, не уступающей работе актрисы в «Большой маленькой лжи». Главную героиню зовут ровно так же, как и режиссера. Однажды ее мать (лауреат премии «Оскар» Эллен Бёрстин) находит старое эссе дочери. В нем та признается, что в детстве была совращена двумя взрослыми. Дженнифер вынужденно начинает вспоминать подробности старой травмы. И тут в историю вступает второй голос — она же 13-летняя. Разные взгляды на произошедшее пересекаются. «Рассказ» участвовал в конкурсной программе фестиваля «Сандэнс-2018».





Файл
Качество: WEB-DL 1080p
Формат: Matroska
Видео: 1920x1080 at 23.976 fps, MPEG-4 AVC, ~9950 kbps avg
Аудио#1: Russian: 48 kHz, AC3, 3/2 (L,C,R,l,r) + LFE ch, ~384 kbps avg |Многоголосый закадровый, cтудия "Кравец-Рекордз"|
Аудио#2: English: 48 kHz, E-AC3, 3/2 (L,C,R,l,r) + LFE ch, ~640 kbps avg
Субтитры: English, English (SDH)



***Релиз: miha2154.
Общее

Уникальный идентификатор : 228738732469681552077019337892947209026 (0xAC157A38E1DA4E9BACEED500C2E6AB42)

Полное имя : The.Tale.2018.1080p.AMZN.WEB-DL.DDP5.1.H.264-NTG[EtHD].mkv

Формат : Matroska

Версия формата : Version 2

Размер файла : 8,99 Гбайт

Продолжительность : 1 ч. 54 м.

Общий поток : 11,2 Мбит/сек

Название фильма : Рассказ / The Tale (2018)

Дата кодирования : UTC 2018-05-31 11:56:36

Программа кодирования : mkvmerge v8.2.0 ('World of Adventure') 64bit

Библиотека кодирования : libebml v1.3.1 + libmatroska v1.4.2

Видео

Идентификатор : 1

Формат : AVC

Формат/Информация : Advanced Video Codec

Профиль формата : High@L4.0

Параметр CABAC формата : Да

Параметр ReFrames формата : 4 кадра

Идентификатор кодека : V_MPEG4/ISO/AVC

Продолжительность : 1 ч. 54 м.

Битрейт : 9950 Кбит/сек

Ширина : 1920 пикселей

Высота : 1080 пикселей

Соотношение сторон : 16:9

Режим частоты кадров : Постоянный

Частота кадров : 23,976 кадра/сек

Цветовое пространство : YUV

Субдискретизация насыщенности : 4:2:0

Битовая глубина : 8 бит

Тип развёртки : Прогрессивная

Бит/(Пиксели*Кадры) : 0.200

Размер потока : 7,99 Гбайт (89%)

Язык : English

Default : Да

Forced : Нет

Основные цвета : BT.709

Характеристики трансфера : BT.709

Коэффициенты матрицы : BT.709

Аудио #1

Идентификатор : 2

Формат : AC-3

Формат/Информация : Audio Coding 3

Расширение режима : CM (complete main)

Параметр Endianness формата : Big

Идентификатор кодека : A_AC3

Продолжительность : 1 ч. 54 м.

Вид битрейта : Постоянный

Битрейт : 384 Кбит/сек

Каналы : 6 каналов

Расположение каналов : Front: L C R, Side: L R, LFE

Частота : 48,0 КГц

Битовая глубина : 16 бит

Метод сжатия : С потерями

Размер потока : 316 Мбайт (3%)

Заголовок : Профессиональный (многоголосый закадровый) студия «Кравец-Рекордз»

Язык : Russian

Default : Да

Forced : Нет

Аудио #2

Идентификатор : 3

Формат : E-AC-3

Формат/Информация : Audio Coding 3

Параметр Endianness формата : Big

Идентификатор кодека : A_EAC3

Продолжительность : 1 ч. 54 м.

Вид битрейта : Постоянный

Битрейт : 640 Кбит/сек

Каналы : 6 каналов

Расположение каналов : Front: L C R, Side: L R, LFE

Частота : 48,0 КГц

Метод сжатия : С потерями

Размер потока : 526 Мбайт (6%)

Язык : English

Default : Нет

Forced : Нет

Текст #1

Идентификатор : 4

Формат : UTF-8

Идентификатор кодека : S_TEXT/UTF8

Идентификатор кодека/Информация : UTF-8 Plain Text

Язык : English

Default : Нет

Forced : Нет

Текст #2

Идентификатор : 5

Формат : UTF-8

Идентификатор кодека : S_TEXT/UTF8

Идентификатор кодека/Информация : UTF-8 Plain Text

Заголовок : SDH

Язык : English

Default : Нет

Forced : Нет



Скачать Рассказ.The.Tale.(Дженнифер.Фокс).[2018.Триллер.драма.детектив.WEB-DL.1080p].[MVO].(cтудия."Кравец-Рекордз").torrent без регистрации
Золото ЗОЛОТАЯ РАЗДАЧА! СКАЧАННОЕ НЕ ЗАСЧИТЫВАЕТСЯ! Золото
Дата: Зарегистрирован   [ Тип: внутренний ] Как тут cкачать?
MAGNET ссылка
MAGNET ссылка


Скачать .torrent

46 KB

Статус: проверено DHT
Скачан: торрент - 81 раз, раздача полностью - 97 раз
Размер: 8,99 GB
Оценка:  - (Голосов: 0)
Поблагодарили: 2
Поделиться ссылкой на эту раздачу с друзьями:
В контактеFacebookОдноклассникиTwitterLivejournalМой МирLiveinternet
 

 
Показать сообщения:    


Вы не можете начинать темы
Вы не можете отвечать на сообщения
Вы не можете редактировать свои сообщения
Вы не можете удалять свои сообщения
Вы не можете голосовать в опросах
Вы не можете прикреплять файлы к сообщениям
Вы можете скачивать файлы