Loading...
Error

Скачать Грезы / Reverie (Сезон 01, серии 01-05 из 10) (Мэтт Эрл Бисли, Жаума Кольет-Серра) [2018, триллер, драма, WEB-DLRip] [MVO] (SDI Media) + [Original] торрент без регистрации

Статистика раздачи
Размер:  2,87 GB   |    Скачан:  108 раз
Сидов:  1  [  0 KB/s  ]  
 
 
 
Автор Сообщение

leon030982

[] 

Грезы / Reverie
Год выпуска: 2018
Страна: США
Жанр: Триллер, драма
Продолжительность: ~ 00:44:00
Перевод: Профессиональный (многоголосый закадровый) SDI Media

Режиссёр: Мэтт Эрл Бисли, Жаума Кольет-Серра, Кеннет Финк

В ролях: Сара Шахи, Дэннис Хэйсбёрт, Кэтрин Моррис, Сендхил Рамамурти, Джессика Лу, Джон Флетчер, Гари Краус, Саша Компере, Тиша Френч, Оливия Агилар

Описание
Бывшего переговорщика и поведенческого эксперта Мару привлекают к проекту продвинутой программы виртуальной реальности, пользователи которой отказались возвращаться и впали в опасную виртуальную кому. Ей предстоит проникнуть в сознание других людей, чтобы убедить их вернуться в реальный мир.



Качество: WEB-DLRip
Контейнер: AVI
Видео: XviD, ~ 1500 Кбит/с, 720x400
Аудио: AC3, 48 kHz, 2ch, 192 kbps - Rus
Аудио 2: AC3, 48 kHz, 2ch, 192 kbps - Eng
Khoren2013

Перевод: Профессиональный (многоголосый закадровый) SDI Media
General
Complete name : E:\PeBepie.1.01.SD.avi
Format : AVI
Format/Info : Audio Video Interleave
File size : 593 MiB
Duration : 42 min 56 s
Overall bit rate : 1 930 kb/s
Writing application : VirtualDubMod 1.5.10.3 | www.virtualdub-fr.org || (build 2550/release)
Writing library : VirtualDubMod build 2550/release

Video
ID : 0
Format : MPEG-4 Visual
Format profile : Advanced Simple@L5
Format settings : BVOP2
Format settings, BVOP : 2
Format settings, QPel : No
Format settings, GMC : No warppoints
Format settings, Matrix : Default (H.263)
Codec ID : XVID
Codec ID/Hint : XviD
Duration : 42 min 56 s
Bit rate : 1 458 kb/s
Width : 720 pixels
Height : 400 pixels
Display aspect ratio : 16:9
Frame rate : 23.976 (24000/1001) FPS
Color space : YUV
Chroma subsampling : 4:2:0
Bit depth : 8 bits
Scan type : Progressive
Compression mode : Lossy
Bits/(Pixel*Frame) : 0.211
Stream size : 448 MiB (76%)
Writing library : XviD 1.2.1 (UTC 2008-12-04)

Audio #1
ID : 1
Format : AC-3
Format/Info : Audio Coding 3
Format settings, Endianness : Big
Codec ID : 2000
Duration : 42 min 56 s
Bit rate mode : Constant
Bit rate : 192 kb/s
Channel(s) : 2 channels
Channel positions : Front: L R
Sampling rate : 48.0 kHz
Frame rate : 31.250 FPS (1536 SPF)
Bit depth : 16 bits
Compression mode : Lossy
Stream size : 59.0 MiB (10%)
Alignment : Split accross interleaves
Service kind : Complete Main

Audio #2
ID : 2
Format : AC-3
Format/Info : Audio Coding 3
Format settings, Endianness : Big
Codec ID : 2000
Duration : 42 min 56 s
Bit rate mode : Constant
Bit rate : 192 kb/s
Channel(s) : 2 channels
Channel positions : Front: L R
Sampling rate : 48.0 kHz
Frame rate : 31.250 FPS (1536 SPF)
Bit depth : 16 bits
Compression mode : Lossy
Stream size : 59.0 MiB (10%)
Alignment : Split accross interleaves
Service kind : Complete Main
Внимание! Раздача ведётся путём добавления новых серий; при каждом добавлении создётся новый торрент. Чтобы начать докачку новой серии, пользователям необходимо сделать следующее:
Остановить скачивание.
Удалить старый торрент у себя из клиента (старые серии удалять не надо).
Скачать новый торрент и запустить его у себя в клиенте вместо старого, при этом указать клиенту путь в старую папку куда и должно происходить скачивание новых серий.
Ваш клиент при этом должен произвести хеширование (проверку) старой папки (если не производит сам - помогите ему сделать это), и будет докачивать только те серии которых у вас ещё нет. Старые серии при этом не удаляются, а продолжают раздаваться!
Eсли вы уже удалили старые серии, то предотвратить повторную закачку старых серий можно, отжав галочку в соответсвующих местах при запуске нового торрента. По возможности, желательно не удалять старые серии как можно дольше чтобы релизёр не столько продолжал раздавать старые серии, а смог сконцентрироваться на новых.



Скачать Грезы.Reverie.(Сезон.01.серии.01-05.из.10).(Мэтт.Эрл.Бисли.Жаума.Кольет-Серра).[2018.триллер.драма.WEB-DLRip].[MVO].(SDI.Media).+.[Original].torrent без регистрации
Золото ЗОЛОТАЯ РАЗДАЧА! СКАЧАННОЕ НЕ ЗАСЧИТЫВАЕТСЯ! Золото
Дата: Зарегистрирован   [ Тип: внутренний ] Как тут cкачать?
MAGNET ссылка
MAGNET ссылка


Скачать .torrent

15 KB

Статус: проверено DHT
Скачан: торрент - 108 раз, раздача полностью - 1 раз
Размер: 2,87 GB
Оценка:  - (Голосов: 0)
Поблагодарили: 0
Поделиться ссылкой на эту раздачу с друзьями:
В контактеFacebookОдноклассникиTwitterLivejournalМой МирLiveinternet
 

 
Показать сообщения:    


Вы не можете начинать темы
Вы не можете отвечать на сообщения
Вы не можете редактировать свои сообщения
Вы не можете удалять свои сообщения
Вы не можете голосовать в опросах
Вы не можете прикреплять файлы к сообщениям
Вы можете скачивать файлы