Loading...
Error

Скачать Шесть / Six (Сезон 02) (Лесли Линка Глаттер, Микаэл Саломон) [2018, Боевик, драма, военный, история, WEB-DLRip] [MVO] (Jaskier) торрент без регистрации

Статистика раздачи
Размер:  5,37 GB   |    Скачан:  232 раза
Сидов:  1  [  0 KB/s  ]  
 
 
 
Автор Сообщение

leon030982

[] 

Шесть / Six



Год выпуска: 2018
Жанр: Боевик, драма, военный, история
Выпущено: США
Продолжительность: 1 x ~ 00:45:00
Перевод: Профессиональный (многоголосый) Jaskier

Режиссер: Лесли Линка Глаттер, Микаэл Саломон

В ролях: Бэрри Слоун, Кайл Шмид, Хуан Пабло Раба, Эдвин Ходж, Брианна Дэвис, Надин Веласкес, Доминик Адамс, Уолтон Гоггинс, Джейлен Мур

О фильме: Военный сериал «Six» рассказывает о деятельности т.н. «SEAL Team Six» - «морских котиках» ВМС США и вдохновлён славной историей этого специального подразделения. Эта группа быстрого развёртывания принимает участие в самых сложных антитеррористических операциях, проводимых Америкой в различных частях света. В том числе, её бойцы участвовали в уничтожении Бен Ладена. Характерно, что конкретные детали деятельности группы, как правило, не комментируются ни Белым Домом, ни Министерством обороны. Отделение по специальным миссиям, как ещё называют «SEAL Team Six» в американских СМИ, тесно сотрудничает с ЦРУ, что говорит о специфике его деятельности



Качество: WEB-DLRip
Формат: AVI
Видео кодек: XviD
Аудио кодек: MP3
Видео: 720x400 (1.80:1), 23.976 fps, XviD ~1479 kbps avg
Аудио 1: 48 kHz, MPEG Layer 3, 2 ch, ~128.00 kbps avg - MVO
Аудио 2: 48 kHz, MPEG Layer 3, 2 ch, ~128.00 kbps avg - ENG
General
Complete name : E:\SIX. Season 2 (WEB-DLRip l 400p l Jaskier)\SIX.S02E01.WEB-DLRip.Rus.Eng.Jaskier.avi
Format : AVI
Format/Info : Audio Video Interleave
File size : 550 MiB
Duration : 45 min 21 s
Overall bit rate : 1 695 kb/s
Writing application : VirtualDubMod 1.5.10.3 | www.virtualdub-fr.org || (build 2550/release)
Writing library : VirtualDubMod build 2550/release

Video
ID : 0
Format : MPEG-4 Visual
Format profile : Advanced Simple@L5
Format settings : BVOP1 / Custom Matrix
Format settings, BVOP : 1
Format settings, QPel : No
Format settings, GMC : No warppoints
Format settings, Matrix : Custom
Codec ID : XVID
Codec ID/Hint : XviD
Duration : 45 min 21 s
Bit rate : 1 361 kb/s
Width : 720 pixels
Height : 400 pixels
Display aspect ratio : 16:9
Frame rate : 23.976 (24000/1001) FPS
Color space : YUV
Chroma subsampling : 4:2:0
Bit depth : 8 bits
Scan type : Progressive
Compression mode : Lossy
Bits/(Pixel*Frame) : 0.197
Stream size : 442 MiB (80%)
Writing library : XviD 73

Audio #1
ID : 1
Format : MPEG Audio
Format version : Version 1
Format profile : Layer 3
Format settings : Joint stereo / MS Stereo
Mode : Joint stereo
Mode extension : MS Stereo
Codec ID : 55
Codec ID/Hint : MP3
Duration : 45 min 20 s
Bit rate mode : Constant
Bit rate : 128 kb/s
Channel(s) : 2 channels
Sampling rate : 48.0 kHz
Compression mode : Lossy
Stream size : 41.5 MiB (8%)
Alignment : Aligned on interleaves

Audio #2
ID : 2
Format : MPEG Audio
Format version : Version 1
Format profile : Layer 3
Format settings : Joint stereo / MS Stereo
Mode : Joint stereo
Mode extension : MS Stereo
Codec ID : 55
Codec ID/Hint : MP3
Duration : 45 min 21 s
Bit rate mode : Constant
Bit rate : 128 kb/s
Channel(s) : 2 channels
Sampling rate : 48.0 kHz
Compression mode : Lossy
Stream size : 41.5 MiB (8%)
Alignment : Aligned on interleaves
Внимание! Раздача ведётся путём добавления новых серий; при каждом добавлении создётся новый торрент. Чтобы начать докачку новой серии, пользователям необходимо сделать следующее: (1) остановить скачивание, (2) удалить старый торрент у себя из клиента (старые серии удалять не надо), (3) скачать новый торрент и запустить его у себя в клиенте вместо старого, при этом указать клиенту путь в старую папку куда и должно происходить скачивание новых серий.
Ваш клиент при этом должен произвести хеширование (проверку) старой папки (если не производит сам - помогите ему сделать это), и будет докачивать только те серии которых у вас ещё нет. Старые серии при этом не удаляются, а продолжают раздаваться!
Eсли вы уже удалили старые серии, то предотвратить повторную закачку старых серий можно, отжав галочку в соответсвующих местах при запуске нового торрента.



Скачать Шесть.Six.(Сезон.02).(Лесли.Линка.Глаттер.Микаэл.Саломон).[2018.Боевик.драма.военный.история.WEB-DLRip].[MVO].(Jaskier).torrent без регистрации
Золото ЗОЛОТАЯ РАЗДАЧА! СКАЧАННОЕ НЕ ЗАСЧИТЫВАЕТСЯ! Золото
Дата: Зарегистрирован   [ Тип: внутренний ] Как тут cкачать?
MAGNET ссылка
MAGNET ссылка


Скачать .torrent

28 KB

Статус: проверено DHT
Скачан: торрент - 232 раз, раздача полностью - 9 раз
Размер: 5,37 GB
Оценка:  5 (Голосов: 1)
Поблагодарили: 1
Поделиться ссылкой на эту раздачу с друзьями:
В контактеFacebookОдноклассникиTwitterLivejournalМой МирLiveinternet
 

 
Показать сообщения:    


Вы не можете начинать темы
Вы не можете отвечать на сообщения
Вы не можете редактировать свои сообщения
Вы не можете удалять свои сообщения
Вы не можете голосовать в опросах
Вы не можете прикреплять файлы к сообщениям
Вы можете скачивать файлы