Loading...
Error

Скачать Грезы / Reverie (Сезон 01, серии 01-08 из 10) (Мэтт Эрл Бисли, Жаума Кольет-Серра) [2018, триллер, драма, WEB-DL 720p] [MVO] (Jaskier) + [Original] торрент без регистрации

Статистика раздачи
Размер:  7,14 GB   |    Скачан:  80 раз
Сидов:  1  [  0 KB/s  ]  
 
 
 
Автор Сообщение

leon030982

[] 

Грезы / Reverie


Год выпуска: 2018
Страна: США
Жанр: триллер, драма
Продолжительность: ~ 00:44:00
Перевод: Профессиональный (многоголосый закадровый) | Jaskier

Режиссёр: Мэтт Эрл Бисли, Жаума Кольет-Серра

В ролях: Сара Шахи, Дэннис Хэйсбёрт, Кэтрин Моррис, Сендхил Рамамурти, Джессика Лу, Джон Флетчер, Гари Краус, Саша Компере, Тиша Френч, Оливия Агилар

Описание: Бывшего переговорщика и поведенческого эксперта Мару привлекают к проекту продвинутой программы виртуальной реальности, пользователи которой отказались возвращаться и впали в опасную виртуальную кому. Ей предстоит проникнуть в сознание других людей, чтобы убедить их вернуться в реальный мир.



Качество: WEB-DL 720p
Формат: MKV
Видео: X264, ~ 3000 kbps, 1280x720 (16:9), 23.976 fps
Аудио 1: AC3, 48,0 КГц, 6 ch, 384 kbps - RUS
Аудио 2: AC3, 48,0 КГц, 6 ch, 384 kbps - ENG
Субтитры: отсутствуют
Общее
Уникальный идентификатор                 : 185173906923454126356017847274445304641 (0x8B4F327D6C541DD891A141953D557341)
Формат                                   : Matroska
Версия формата                           : Version 2
Размер файла                             : 1,14 Гбайт
Продолжительность                        : 42 м.
Общий поток                              : 3787 Кбит/сек
Дата кодирования                         : UTC 2018-06-02 14:08:47
Программа кодирования                    : mkvmerge v5.8.0 ('No Sleep / Pillow') built on Sep  2 2012 15:37:04
Библиотека кодирования                   : libebml v1.2.3 + libmatroska v1.3.0

Видео
Идентификатор                            : 1
Формат                                   : AVC
Формат/Информация                        : Advanced Video Codec
Профиль формата                          : High@L3.1
Параметр CABAC формата                   : Да
Параметр ReFrames формата                : 5 кадров
Идентификатор кодека                     : V_MPEG4/ISO/AVC
Продолжительность                        : 42 м.
Битрейт                                  : 2944 Кбит/сек
Ширина                                   : 1280 пикселей
Высота                                   : 720 пикселей
Соотношение сторон                       : 16:9
Режим частоты кадров                     : Постоянный
Частота кадров                           : 23,976 (24000/1001) кадра/сек
Цветовое пространство                    : YUV
Субдискретизация насыщенности            : 4:2:0
Битовая глубина                          : 8 бит
Тип развёртки                            : Прогрессивная
Бит/(Пиксели*Кадры)                      : 0.133
Размер потока                            : 904 Мбайт (78%)
Default                                  : Да
Forced                                   : Нет
Цветовой диапазон                        : Limited
Основные цвета                           : BT.709
Характеристики трансфера                 : BT.709
Коэффициенты матрицы                     : BT.709

Аудио #1
Идентификатор                            : 2
Формат                                   : AC-3
Формат/Информация                        : Audio Coding 3
Расширение режима                        : CM (complete main)
Параметр Endianness формата              : Big
Идентификатор кодека                     : A_AC3
Продолжительность                        : 42 м.
Вид битрейта                             : Постоянный
Битрейт                                  : 384 Кбит/сек
Каналы                                   : 6 каналов
Расположение каналов                     : Front: L C R, Side: L R, LFE
Частота                                  : 48,0 КГц
Частота кадров                           : 31,250 кадров/сек (1536 spf)
Метод сжатия                             : С потерями
Размер потока                            : 118 Мбайт (10%)
Язык                                     : Russian
Default                                  : Да
Forced                                   : Нет

Аудио #2
Идентификатор                            : 3
Формат                                   : AC-3
Формат/Информация                        : Audio Coding 3
Расширение режима                        : CM (complete main)
Параметр Endianness формата              : Big
Идентификатор кодека                     : A_AC3
Продолжительность                        : 42 м.
Вид битрейта                             : Постоянный
Битрейт                                  : 384 Кбит/сек
Каналы                                   : 6 каналов
Расположение каналов                     : Front: L C R, Side: L R, LFE
Частота                                  : 48,0 КГц
Частота кадров                           : 31,250 кадров/сек (1536 spf)
Метод сжатия                             : С потерями
Размер потока                            : 118 Мбайт (10%)
Язык                                     : English
Default                                  : Нет
Forced                                   : Нет
Когда раздача ведётся путём добавления новых серий, при каждом добавлении создётся новый торрент. Чтобы начать докачку новой серии, пользователям необходимо сделать следующее:
(1) остановить скачивание,
(2) удалить старый торрент у себя из клиента (старые серии удалять не надо),
(3) скачать новый торрент и запустить его у себя в клиенте вместо старого, при этом указать клиенту путь в старую папку, куда и должно происходить скачивание новых серий.
Ваш клиент при этом должен произвести хеширование (проверку) старой папки (если не производит сам - помогите ему сделать это), и будет докачивать только те серии, которых у вас ещё нет. Старые серии при этом не удаляются, а продолжают раздаваться!
Eсли вы уже удалили старые серии, то предотвратить повторную закачку старых серий можно, отжав галочку в соответсвующих местах при запуске нового торрента. По возможности, желательно не удалять старые серии как можно дольше, чтобы релизёр не столько продолжал раздавать старые серии, а смог сконцентрироваться на новых.



Скачать Грезы.Reverie.(Сезон.01.серии.01-08.из.10).(Мэтт.Эрл.Бисли.Жаума.Кольет-Серра).[2018.триллер.драма.WEB-DL.720p].[MVO].(Jaskier).+.[Original].torrent без регистрации
Золото ЗОЛОТАЯ РАЗДАЧА! СКАЧАННОЕ НЕ ЗАСЧИТЫВАЕТСЯ! Золото
Дата: Зарегистрирован   [ Тип: внутренний ] Как тут cкачать?
MAGNET ссылка
MAGNET ссылка


Скачать .torrent

37 KB

Статус: проверено DHT
Скачан: торрент - 80 раз, раздача полностью - 0 раз
Размер: 7,14 GB
Оценка:  - (Голосов: 0)
Поблагодарили: 0
Поделиться ссылкой на эту раздачу с друзьями:
В контактеFacebookОдноклассникиTwitterLivejournalМой МирLiveinternet
 

 
Показать сообщения:    


Вы не можете начинать темы
Вы не можете отвечать на сообщения
Вы не можете редактировать свои сообщения
Вы не можете удалять свои сообщения
Вы не можете голосовать в опросах
Вы не можете прикреплять файлы к сообщениям
Вы можете скачивать файлы