Loading...
Error

Скачать Моя бывшая подружка / Ami-ami (Виктор Сейнт Макари) [2018, Комедия, BDRemux] [1080p] [MVO] [iTunes] торрент без регистрации

Статистика раздачи
Размер:  18,54 GB   |    Скачан:  93 раза
Сидов:  1  [  0 KB/s  ]  
 
 
 
Автор Сообщение

leon030982

[] 

Информация о фильме

Название: Моя бывшая подружка
Оригинальное название: Ami-ami
Год выхода: 2018
Жанр: Комедия
Страна: Франция
Студия: Nord-Ouest Productions, NJJ Entertainment, Canal+
Продолжительность: 01:25:33
Перевод: Профессиональный многоголосый | iTunes

Режиссер: Виктор Сейнт Макари

В ролях: Уилльям Лебхил, Марго Бансийон, Джонатан Коэн, Камилль Раза, Беатрис де Стаэль, Мари-Кристин Орри, Николас Ваншыцкий, Себастьян Шассейн, Пол-Антуан Ченоз



О фильме: После тяжелого разрыва с девушкой Винсент решает никогда больше не подвергать своё сердце тяжёлым ударам любви. Он съезжается со своим старым проверенным другом Нефели. Так уж случилось, что Нефели — безбашенная, эмоциональная блондинка. Главное правило их дома: никаких серьезных отношений с третьими лицами! Позволены только встречи на одну ночь, не более! Неожиданно Винсент знакомится с безрассудной шатенкой Джули и неизбежно нарушает главное правило. Что на это скажет Нефели?

Качество: BDRemux 1080p
Видео: MPEG-4 AVC, 1920x1080, 28.2 Mbit/s, 23.976 fps
Звук:
Аудио #01: 48 kHz, AC3, 5.1, 384 Kbps | iTunes | RUS |
Аудио #02: 48 kHz, DTS-HD MA, 5.1, 3614 Kbps | Оригинал | FRE |
Субтитры: Русские (forced), французские

General

Unique ID : 201943122860803240608856342249030252919 (0x97ECD4AB40068D12F31A63EF2E1B7977)

Complete name : D:Video111Ami.Ami.2018.BDREMUX.1080p.ExKinoRay.mkv

Format : Matroska

Format version : Version 4 / Version 2

File size : 18.5 GiB

Duration : 1 h 25 min

Overall bit rate : 31.0 Mb/s

Movie name : Ami-ami 2017 from ExKinoRay

Encoded date : UTC 2018-06-08 22:35:22

Writing application : mkvmerge v23.0.0 ('The Bride Said No') 64-bit

Writing library : libebml v1.3.6 + libmatroska v1.4.9

Video

ID : 1

Format : AVC

Format/Info : Advanced Video Codec

Format profile : High@L4.1

Format settings : CABAC / 1 Ref Frames

Format settings, CABAC : Yes

Format settings, ReFrames : 1 frame

Format settings, GOP : M=1, N=24

Codec ID : V_MPEG4/ISO/AVC

Duration : 1 h 25 min

Bit rate mode : Constant

Bit rate : 28.2 Mb/s

Width : 1 920 pixels

Height : 1 080 pixels

Display aspect ratio : 16:9

Frame rate mode : Constant

Frame rate : 23.976 (24000/1001) FPS

Color space : YUV

Chroma subsampling : 4:2:0

Bit depth : 8 bits

Scan type : Progressive

Bits/(Pixel*Frame) : 0.566

Stream size : 16.1 GiB (87%)

Language : French

Default : Yes

Forced : Yes

Color range : Limited

Color primaries : BT.709

Transfer characteristics : BT.709

Matrix coefficients : BT.709

Audio #1

ID : 2

Format : AC-3

Format/Info : Audio Coding 3

Codec ID : A_AC3

Duration : 1 h 25 min

Bit rate mode : Constant

Bit rate : 384 kb/s

Channel(s) : 6 channels

Channel positions : Front: L C R, Side: L R, LFE

Sampling rate : 48.0 kHz

Frame rate : 31.250 FPS (1536 SPF)

Bit depth : 16 bits

Compression mode : Lossy

Stream size : 235 MiB (1%)

Title : iTunes

Language : Russian

Service kind : Complete Main

Default : Yes

Forced : Yes

Audio #2

ID : 3

Format : DTS

Format/Info : Digital Theater Systems

Format profile : MA / Core

Codec ID : A_DTS

Duration : 1 h 25 min

Bit rate mode : Variable / Constant

Bit rate : 3 614 kb/s / 1 509 kb/s

Channel(s) : 6 channels

Channel positions : Front: L C R, Side: L R, LFE

Sampling rate : 48.0 kHz

Frame rate : 93.750 FPS (512 SPF)

Bit depth : 24 bits

Compression mode : Lossless / Lossy

Stream size : 2.16 GiB (12%)

Title : Original

Language : French

Default : No

Forced : No

Text #1

ID : 4

Format : UTF-8

Codec ID : S_TEXT/UTF8

Codec ID/Info : UTF-8 Plain Text

Duration : 37 min 43 s

Bit rate : 3 b/s

Count of elements : 15

Stream size : 857 Bytes (0%)

Title : Forced

Language : Russian

Default : Yes

Forced : Yes

Text #2

ID : 5

Format : UTF-8

Codec ID : S_TEXT/UTF8

Codec ID/Info : UTF-8 Plain Text

Duration : 1 h 25 min

Bit rate : 66 b/s

Count of elements : 1486

Stream size : 41.4 KiB (0%)

Title : SDH

Language : French

Default : No

Forced : No

Menu

00:00:00.000 : en:Chapter 1

00:06:32.683 : en:Chapter 2

00:14:46.802 : en:Chapter 3

00:21:47.222 : en:Chapter 4

00:31:10.368 : en:Chapter 5

00:40:24.922 : en:Chapter 6

00:46:53.435 : en:Chapter 7

00:53:48.225 : en:Chapter 8

01:00:06.436 : en:Chapter 9

01:09:39.925 : en:Chapter 10

01:15:05.626 : en:Chapter 11

01:22:17.265 : en:Chapter 12
Релиз от: Автор релиза:




Скачать Моя.бывшая.подружка.Ami-ami.(Виктор.Сейнт.Макари).[2018.Комедия.BDRemux].[1080p].[MVO].[iTunes].torrent без регистрации
Золото ЗОЛОТАЯ РАЗДАЧА! СКАЧАННОЕ НЕ ЗАСЧИТЫВАЕТСЯ! Золото
Дата: Зарегистрирован   [ Тип: внутренний ] Как тут cкачать?
MAGNET ссылка
MAGNET ссылка


Скачать .torrent

94 KB

Статус: проверено DHT
Скачан: торрент - 93 раз, раздача полностью - 87 раз
Размер: 18,54 GB
Оценка:  5 (Голосов: 1)
Поблагодарили: 2
Поделиться ссылкой на эту раздачу с друзьями:
В контактеFacebookОдноклассникиTwitterLivejournalМой МирLiveinternet
 

 
Показать сообщения:    


Вы не можете начинать темы
Вы не можете отвечать на сообщения
Вы не можете редактировать свои сообщения
Вы не можете удалять свои сообщения
Вы не можете голосовать в опросах
Вы не можете прикреплять файлы к сообщениям
Вы можете скачивать файлы