Loading...
Error

Скачать Пикник у Висячей скалы / Picnic at Hanging Rock (Сезон 01, серии 01-05 из 06) (Лариса Кондрацки, Майкл Раймер, Аманда Бротчи) [2018, драма, мелодрама, детектив, WEB-DL 720p] [DVO] (Кубик в Кубе) торрент без регистрации

Статистика раздачи
Размер:  6,86 GB   |    Скачан:  79 раз
Сидов:  1  [  0 KB/s  ]  
 
 
 
Автор Сообщение

leon030982

[] 

Пикник у Висячей скалы / Picnic at Hanging Rock



Год выпуска: 2018
Страна: Австралия
Жанр: драма, мелодрама, детектив
Продолжительность: ~00:50:00
Перевод: Профессиональный (двухголосый закадровый) Кубик в Кубе

Режиссёр: Лариса Кондрацки, Майкл Раймер, Аманда Бротчи

В ролях: Натали Дормер, Лили Салливан, Лола Бессис, Харрисон Гилбертсон, Самара Уивинг, Мадлен Мэдден, Инес Курро, Руби Рис, Яэль Стоун, Филипп Кваст, Маркус Грэхем, Джеймс Хоар, Марк Коулс Смит, Дон Хани, Анна МакГак, Бетани Уитмор, Майя Фредес, Алисса Тейддхемм, Кейт Брэдфорд, Маркелла Кавена, Джонни Пасвольски, Эмили Груль, Нил Мелвилл, Николас Хоуп, Джон Флаус, Том Хоббс, Аарон Гленан, Рослин Джентл, Ли Корми, Каарин Фэрфакс, Кейт Бокс, Сибилла Бадд, Брюс Картер, Даниэль Хаган и др.

Описание:
Австралийский мистический телесериал, римейк одноимённого фильма 1975 года, созданного на основе книги современной австралийской писательницы Джоан Линдси.

В загородной школе для девочек после пикника без вести пропадают три девочки и преподавательница математики. После этого на их поиски тут же бросается полиция, но все безрезультатно. Тогда делу решает помочь молодой англичанин, который видел, как девушки забирались на скалу. Кажется, что единственная, кого не волнует судьба пропавших, - это директриса, которая в этот момент больше обеспокоена судьбой своего заведения.




Работа со звуком: messafan

Качество: WEB-DL 720p
Формат: MKV
Видео: AVC(High@L4.1) , 1,78:1 = 16:9, 1280x720| 2700 kbps| 23.976 fps
Аудио 1: AC3 , 5.1 / 48 kHz / 640 kbps / 16-bit - Кубик в Кубе
Аудио 2: AC-3 , 5.1 / 48 kHz / 640 kbps / 16-bit - Оригинал (English)
Субтитры: Английские
General
Unique ID : 174263269232851984341038337348612411137 (0x8319E2850553AF7DB65F95E6EFE04F01)
Complete name : F:\Picnic.at.Hanging.Rock.S01.720p.WEBDL.KvK.CasStudio.TV\Picnic.at.Hanging.Rock.S01E01.720p.WEB-DL.KvK.CasStudio.TV.mkv
Format : Matroska
Format version : Version 4 / Version 2
File size : 1.42 GiB
Duration : 52 min 9 s
Overall bit rate mode : Variable
Overall bit rate : 3 895 kb/s
Movie name : Picnic at Hanging Rock 01x01 - release by messafan for CasStudio.TV
Encoded date : UTC 2018-06-06 19:25:16
Writing application : mkvmerge v6.7.0 ('Back to the Ground') 64bit built on Jan 8 2014 15:10:52
Writing library : libebml v1.3.0 + libmatroska v1.4.1

Video
ID : 1
Format : AVC
Format/Info : Advanced Video Codec
Format profile : High@L3.1
Format settings : CABAC / 5 Ref Frames
Format settings, CABAC : Yes
Format settings, RefFrames : 5 frames
Codec ID : V_MPEG4/ISO/AVC
Duration : 52 min 9 s
Bit rate mode : Variable
Bit rate : 2 538 kb/s
Maximum bit rate : 4 500 kb/s
Width : 1 280 pixels
Height : 720 pixels
Display aspect ratio : 16:9
Frame rate mode : Constant
Frame rate : 25.000 FPS
Color space : YUV
Chroma subsampling : 4:2:0
Bit depth : 8 bits
Scan type : Progressive
Bits/(Pixel*Frame) : 0.110
Stream size : 947 MiB (65%)
Default : Yes
Forced : No
Color range : Limited
Color primaries : BT.709
Transfer characteristics : BT.709
Matrix coefficients : BT.709

Audio #1
ID : 2
Format : AC-3
Format/Info : Audio Coding 3
Format settings, Endianness : Big
Codec ID : A_AC3
Duration : 52 min 9 s
Bit rate mode : Constant
Bit rate : 640 kb/s
Channel(s) : 6 channels
Channel positions : Front: L C R, Side: L R, LFE
Sampling rate : 48.0 kHz
Frame rate : 31.250 FPS (1536 SPF)
Bit depth : 16 bits
Compression mode : Lossy
Stream size : 239 MiB (16%)
Title : KvK DD5.1 @ 640kbps
Language : Russian
Service kind : Complete Main
Default : Yes
Forced : No

Audio #2
ID : 3
Format : AC-3
Format/Info : Audio Coding 3
Format settings, Endianness : Big
Codec ID : A_AC3
Duration : 52 min 9 s
Bit rate mode : Constant
Bit rate : 640 kb/s
Channel(s) : 6 channels
Channel positions : Front: L C R, Side: L R, LFE
Sampling rate : 48.0 kHz
Frame rate : 31.250 FPS (1536 SPF)
Bit depth : 16 bits
Compression mode : Lossy
Stream size : 239 MiB (16%)
Title : English DD5.1 @ 640kbps
Language : English
Service kind : Complete Main
Default : No
Forced : No

Text #1
ID : 4
Format : UTF-8
Codec ID : S_TEXT/UTF8
Codec ID/Info : UTF-8 Plain Text
Title : Eng sub
Language : English
Default : No
Forced : No

Text #2
ID : 5
Format : UTF-8
Codec ID : S_TEXT/UTF8
Codec ID/Info : UTF-8 Plain Text
Title : SDH
Language : English
Default : No
Forced : No

Menu
00:00:00.000 : en:Amazon Original
00:00:05.000 : en:Hester inspects the college
00:05:50.000 : en:Title Sequence
00:05:58.000 : en:Hester briefs the teachers
00:09:02.000 : en:Appleyard inspects the senior girls on their way to the fete
00:12:46.000 : en:Appleyard looks for Miranda
00:18:00.000 : en:Miranda is given the harsh truth by Appleyard
00:20:50.000 : en:Happy St. Valentine's Day
00:27:33.000 : en:Mrs. Appleyard's secret is at risk
00:31:26.000 : en:The girls head to the picnic ground
00:34:22.000 : en:Appleyard brushes Sara's hair
00:38:43.000 : en:The students start to fall asleep
00:42:43.000 : en:Miranda and the girls travel up to the rock
00:46:43.000 : en:Appleyard dreams she is at the picnic
00:48:28.000 : en:Something terrible has happened
00:50:34.000 : en:End Credits



Скачать Пикник.у.Висячей.скалы.Picnic.at.Hanging.Rock.(Сезон.01.серии.01-05.из.06).(Лариса.Кондрацки.Майкл.Раймер.Аманда.Бротчи).[2018.драма.мелодрама.детектив.WEB-DL.720p].[DVO].(Кубик.в.Кубе).torrent без регистрации
Золото ЗОЛОТАЯ РАЗДАЧА! СКАЧАННОЕ НЕ ЗАСЧИТЫВАЕТСЯ! Золото
Дата: Зарегистрирован   [ Тип: внутренний ] Как тут cкачать?
MAGNET ссылка
MAGNET ссылка


Скачать .torrent

35 KB

Статус: проверено DHT
Скачан: торрент - 79 раз, раздача полностью - 0 раз
Размер: 6,86 GB
Оценка:  - (Голосов: 0)
Поблагодарили: 0
Поделиться ссылкой на эту раздачу с друзьями:
В контактеFacebookОдноклассникиTwitterLivejournalМой МирLiveinternet
 

 
Показать сообщения:    


Вы не можете начинать темы
Вы не можете отвечать на сообщения
Вы не можете редактировать свои сообщения
Вы не можете удалять свои сообщения
Вы не можете голосовать в опросах
Вы не можете прикреплять файлы к сообщениям
Вы можете скачивать файлы