Loading...
Error

Скачать Опасный бизнес / Gringo (Нэш Эдгертон) [2018, Боевик, комедия, криминал, BDRip][1080p] [DUB RUS UKR iTunes] [R.G. GoldenShara] торрент без регистрации

Статистика раздачи
Размер:  4,37 GB   |    Скачан:  235 раз
Сидов:  2  [  0 KB/s  ]  
 
 
 
Автор Сообщение

Magnetto83

[] 


Опасный бизнес / Gringo


Год выпуска: 2018
Выпущено: США, Австралия | Bac Films, Savage Productions, Tilted Pictures
Жанр: Боевик, комедия, криминал
Продолжительность: 01:50:38
Субтитры: Английские (Full)
Навигация по главам: Сохранены оригинальные главы как на Blu-ray

Слоган: «An American Corporation, The Mexican Cartel, Chances Are This Won't End Well»

Режиссер: Нэш Эдгертон

В ролях: Джоэл Эдгертон, Шарлиз Терон, Дэвид Ойелоуо, Тэнди Ньютон, Башир Салахуддин, Гленн Кубота, Мелони Диас, Аманда Сайфред, Гарри Тредэвэй, Тео Таплитц, Шарлто Копли

Описание: Дерзкая длинноногая блондинка — она идеально подходит для опасного бизнеса. Однажды одному из ее подчиненных становится известна уникальная формула, за которой гоняется весь мир. Он решает инсценировать собственное похищение и потребовать выкуп у компании. Лучше этому умнику не рассчитывать на помощь своей эффектной начальницы, ведь для корпорации он предпочтительнее мертвый, чем живой.



Возраст: 18+ (зрителям, достигшим 18 лет. запрещено для детей)
Рейтинг MPAA: R (лицам до 17 лет обязательно присутствие взрослого)

Качество: BDRip 1080p
Формат: MKV
Видео кодек: H.264
Аудио кодек: AC3
Видео: 1920x804 (2.40:1), 4887 Кбит/с, 23.976 fps
Аудио 1: Русский Dolby Digital 5.1 (384 Кбит/с)
Аудио 2: Украинский Dolby Digital 5.1 (384 Кбит/с)


x264 [info]: frame I:998 Avg QP:14.85 size:165595
x264 [info]: frame P:30009 Avg QP:17.75 size: 59291
x264 [info]: frame B:99290 Avg QP:20.27 size: 22376
x264 [info]: consecutive B-frames: 2.4% 4.0% 10.7% 17.4% 23.6% 34.3% 4.1% 1.1% 2.4%
x264 [total]: encoded 130297 frames, 0.82 fps, 6133.09 kb/s



General

Complete name : J:\Кино HD\Мои Рипы 1080p\Кино Хиты 2018 1080р\Опасный бизнес 2018 Dub Rus Ukr iTunes BDRip 1080p.mkv
Format : Matroska
Format version : Version 2
File size : 4.37 GiB
Duration : 1h 50mn
Overall bit rate : 5 657 Kbps
Movie name : Опасная работа 2018 Dub Rus Ukr BDRip 1080p By R.G. GoldenShara
Encoded date : UTC 2018-06-06 10:57:28
Writing application : mkvmerge v5.2.0 ('I can't explain') built on Dec 18 2011 18:12:03
Writing library : libebml v1.2.3 + libmatroska v1.3.0
Attachements : Cover

Video
ID : 1
Format : AVC
Format/Info : Advanced Video Codec
Format profile : High@L4.1
Format settings, CABAC : Yes
Format settings, ReFrames : 5 frames
Codec ID : V_MPEG4/ISO/AVC
Duration : 1h 50mn
Bit rate : 4 887 Kbps
Width : 1 920 pixels
Height : 804 pixels
Display aspect ratio : 2.40:1
Frame rate mode : Constant
Frame rate : 23.976 fps
Color space : YUV
Chroma subsampling : 4:2:0
Bit depth : 8 bits
Scan type : Progressive
Bits/(Pixel*Frame) : 0.132
Stream size : 3.69 GiB (84%)
Title : Опасная работа 2018 BDRip 1080p By Magnetto 83
Writing library : x264 core 146 r2538 121396c
Encoding settings : cabac=1 / ref=5 / deblock=1:-2:-2 / analyse=0x3:0x113 / me=umh / subme=10 / psy=1 / psy_rd=1.00:0.00 / mixed_ref=1 / me_range=32 / chroma_me=1 / trellis=2 / 8x8dct=1 / cqm=0 / deadzone=21,11 / fast_pskip=0 / chroma_qp_offset=-2 / threads=3 / lookahead_threads=1 / sliced_threads=0 / nr=0 / decimate=1 / interlaced=0 / bluray_compat=0 / constrained_intra=0 / bframes=8 / b_pyramid=2 / b_adapt=2 / b_bias=0 / direct=3 / weightb=1 / open_gop=0 / weightp=2 / keyint=250 / keyint_min=23 / scenecut=40 / intra_refresh=0 / rc=2pass / mbtree=0 / bitrate=4887 / ratetol=1.0 / qcomp=0.60 / qpmin=0 / qpmax=69 / qpstep=4 / cplxblur=20.0 / qblur=0.5 / ip_ratio=1.40 / pb_ratio=1.30 / aq=2:1.00
Language : English
Default : Yes
Forced : No

Audio #1
ID : 2
Format : AC-3
Format/Info : Audio Coding 3
Mode extension : CM (complete main)
Format settings, Endianness : Big
Codec ID : A_AC3
Duration : 1h 50mn
Bit rate mode : Constant
Bit rate : 384 Kbps
Channel(s) : 6 channels
Channel positions : Front: L C R, Side: L R, LFE
Sampling rate : 48.0 KHz
Compression mode : Lossy
Stream size : 304 MiB (7%)
Title : DD 5.1 @ 384 Kbps - Dub | iTunes |
Language : Russian
Default : Yes
Forced : No

Audio #2
ID : 3
Format : AC-3
Format/Info : Audio Coding 3
Mode extension : CM (complete main)
Format settings, Endianness : Big
Codec ID : A_AC3
Duration : 1h 50mn
Bit rate mode : Constant
Bit rate : 384 Kbps
Channel(s) : 6 channels
Channel positions : Front: L C R, Side: L R, LFE
Sampling rate : 48.0 KHz
Compression mode : Lossy
Stream size : 304 MiB (7%)
Title : DD 5.1 @ 384 Kbps - Dub | iTunes |
Language : Ukrainian
Default : No
Forced : No

Text
ID : 4
Format : UTF-8
Codec ID : S_TEXT/UTF8
Codec ID/Info : UTF-8 Plain Text
Title : Full
Language : English
Default : No
Forced : No

Menu
00:00:00.000 : en:00:00:00.000
00:02:29.024 : en:00:02:29.024
00:08:36.808 : en:00:08:36.808
00:14:49.388 : en:00:14:49.388
00:19:43.057 : en:00:19:43.057
00:26:11.195 : en:00:26:11.195
00:29:59.548 : en:00:29:59.548
00:34:12.676 : en:00:34:12.676
00:41:59.600 : en:00:41:59.600
00:49:14.702 : en:00:49:14.702
00:57:12.304 : en:00:57:12.304
01:02:56.940 : en:01:02:56.940
01:09:40.551 : en:01:09:40.551
01:16:20.951 : en:01:16:20.951
01:20:38.125 : en:01:20:38.125
01:25:53.857 : en:01:25:53.857
01:29:14.224 : en:01:29:14.224
01:33:46.704 : en:01:33:46.704
01:39:06.524 : en:01:39:06.524
01:43:28.869 : en:01:43:28.869







Скачать Опасный.бизнес.Gringo.(Нэш.Эдгертон).[2018.Боевик.комедия.криминал.BDRip][1080p].[DUB.RUS.UKR.iTunes].[R.G.GoldenShara].torrent без регистрации
Золото ЗОЛОТАЯ РАЗДАЧА! СКАЧАННОЕ НЕ ЗАСЧИТЫВАЕТСЯ! Золото
Дата: Зарегистрирован   [ Тип: внутренний ] Как тут cкачать?
MAGNET ссылка
MAGNET ссылка


Скачать .torrent

11 KB

Статус: проверено
Скачан: торрент - 235 раз, раздача полностью - 96 раз
Размер: 4,37 GB
Оценка:  5 (Голосов: 4)
Поблагодарили: 11
Поделиться ссылкой на эту раздачу с друзьями:
В контактеFacebookОдноклассникиTwitterLivejournalМой МирLiveinternet
 

 
Показать сообщения:    


Вы не можете начинать темы
Вы не можете отвечать на сообщения
Вы не можете редактировать свои сообщения
Вы не можете удалять свои сообщения
Вы не можете голосовать в опросах
Вы не можете прикреплять файлы к сообщениям
Вы можете скачивать файлы