Loading...
Error

Скачать Снегопад / Snowfall / Сезон: 2 / Серии: 1-8 из 10 (Адиль Эль Арби, Билал Фалла, Джон Синглтон) [2018, Драма, WEB-DL 1080p] [DVO] (Кубик в Кубе) + [Original] + [Sub] Eng торрент без регистрации

Статистика раздачи
Размер:  27,98 GB   |    Скачан:  206 раз

Полного источника не было: 24 минуты

 
 
 
Автор Сообщение

leon030982

[] 

Снегопад | Snowfall
Год выпуска: 2018
Страна: США
Жанр: Драма
Продолжительность: ~ 00:55:00
Перевод: Профессиональный (двухголосый закадровый)*Кубик в Кубе*

Режиссёр: Адиль Эль Арби, Билал Фалла, Джон Синглтон

В ролях: Серхио Перис-Менчета, Эймин Джозеф, Айзиа Джон, Клаудия Абрего, Рой Авигдори, Лиана Легаспи, Адам Карст, Бернардо Бадилло, Ник Бишоп, Маркис Мур и др.

Описание: Сериал о начале кокаиновой эпидемии в Лос-Анджелесе начала 1980-х, когда на улицах Америки появился дешёвый крэк из Доминиканы, и страну захлестнул неконтролируемый рост преступности. События увидены глазами трёх главных героев: уличного торговца Джерома, гангстера Густаво и Леона, парня из благопристойного семейства.



Релиз -- CasStudio
Работа со звуком: Messafan

Качество: WEB-DL 1080p
Формат: MKV
Видео: 1920x1080 (16:9) | X264 | ~11000 kbps | 23.976 fps
Аудио 1: AC3, 48,0 КГц, 6 ch, 640 kbps - Rus
Аудио 2: E-AC3, 48,0 КГц, 6 ch, 640 kbps - Eng
Субтитры: английские
General
Unique ID : 267202216029162537617257069017894612600 (0xC905466038A1191438CCD4777E01EE78)
Complete name : F:\Snowfall.S02.1080p.WEB-DL.KvK.CasStudio.TV\Snowfall.S02E01.Sightlines.1080p.WEB-DL.KvK.CasStudio.TV.mkv
Format : Matroska
Format version : Version 4 / Version 2
File size : 3.90 GiB
Duration : 46 min 37 s
Overall bit rate : 12.0 Mb/s
Movie name : Snowfall 02x01 (Sightlines) - release by messafan for CasStudio.TV
Encoded date : UTC 2018-07-25 20:57:06
Writing application : mkvmerge v24.0.0 ('Beyond The Pale') 64-bit
Writing library : libebml v1.3.6 + libmatroska v1.4.9

Video
ID : 1
Format : AVC
Format/Info : Advanced Video Codec
Format profile : High@L4
Format settings : CABAC / 4 Ref Frames
Format settings, CABAC : Yes
Format settings, RefFrames : 4 frames
Codec ID : V_MPEG4/ISO/AVC
Duration : 46 min 37 s
Bit rate : 10.5 Mb/s
Width : 1 920 pixels
Height : 1 080 pixels
Display aspect ratio : 16:9
Frame rate mode : Constant
Frame rate : 23.976 (24000/1001) FPS
Color space : YUV
Chroma subsampling : 4:2:0
Bit depth : 8 bits
Scan type : Progressive
Bits/(Pixel*Frame) : 0.210
Stream size : 3.41 GiB (87%)
Language : English
Default : Yes
Forced : No
Color range : Limited
Color primaries : BT.709
Transfer characteristics : BT.709
Matrix coefficients : BT.709

Audio #1
ID : 2
Format : AC-3
Format/Info : Audio Coding 3
Format settings, Endianness : Big
Codec ID : A_AC3
Duration : 46 min 37 s
Bit rate mode : Constant
Bit rate : 640 kb/s
Channel(s) : 6 channels
Channel positions : Front: L C R, Side: L R, LFE
Sampling rate : 48.0 kHz
Frame rate : 31.250 FPS (1536 SPF)
Bit depth : 16 bits
Compression mode : Lossy
Stream size : 213 MiB (5%)
Title : KvK DD5.1 @ 640kbps
Language : Russian
Service kind : Complete Main
Default : Yes
Forced : No

Audio #2
ID : 3
Format : E-AC-3
Format/Info : Enhanced Audio Coding 3
Format settings, Endianness : Big
Codec ID : A_EAC3
Duration : 46 min 37 s
Bit rate mode : Constant
Bit rate : 640 kb/s
Channel(s) : 6 channels
Channel positions : Front: L C R, Side: L R, LFE
Sampling rate : 48.0 kHz
Frame rate : 187.500 FPS (256 SPF)
Compression mode : Lossy
Delay relative to video : 9 ms
Stream size : 213 MiB (5%)
Title : English DD5.1 @ 640kbps
Language : English
Service kind : Complete Main
Default : No
Forced : No

Text
ID : 4
Format : UTF-8
Codec ID : S_TEXT/UTF8
Codec ID/Info : UTF-8 Plain Text
Language : English
Default : No
Forced : No
Когда раздача ведётся путём добавления новых серий, при каждом добавлении создётся новый торрент. Чтобы начать докачку новой серии, пользователям необходимо сделать следующее:
(1) остановить скачивание,
(2) удалить старый торрент у себя из клиента (старые серии удалять не надо),
(3) скачать новый торрент и запустить его у себя в клиенте вместо старого, при этом указать клиенту путь в старую папку, куда и должно происходить скачивание новых серий.
Ваш клиент при этом должен произвести хеширование (проверку) старой папки (если не производит сам - помогите ему сделать это), и будет докачивать только те серии, которых у вас ещё нет. Старые серии при этом не удаляются, а продолжают раздаваться!
Eсли вы уже удалили старые серии, то предотвратить повторную закачку старых серий можно, отжав галочку в соответсвующих местах при запуске нового торрента. По возможности, желательно не удалять старые серии как можно дольше, чтобы релизёр не столько продолжал раздавать старые серии, а смог сконцентрироваться на новых.



Скачать Снегопад.Snowfall.Сезон.2.Серии.1-8.из.10.(Адиль.Эль.Арби.Билал.Фалла.Джон.Синглтон).[2018.Драма.WEB-DL.1080p].[DVO].(Кубик.в.Кубе).+.[Original].+.[Sub].Eng.torrent без регистрации
Золото ЗОЛОТАЯ РАЗДАЧА! СКАЧАННОЕ НЕ ЗАСЧИТЫВАЕТСЯ! Золото
Дата: Зарегистрирован   [ Тип: внутренний ] Как тут cкачать?
MAGNET ссылка
MAGNET ссылка


Скачать .torrent

36 KB

Статус: проверено DHT
Скачан: торрент - 206 раз, раздача полностью - 0 раз
Размер: 27,98 GB
Оценка:  - (Голосов: 0)
Поблагодарили: 0
Поделиться ссылкой на эту раздачу с друзьями:
В контактеFacebookОдноклассникиTwitterLivejournalМой МирLiveinternet
 

 
Показать сообщения:    


Вы не можете начинать темы
Вы не можете отвечать на сообщения
Вы не можете редактировать свои сообщения
Вы не можете удалять свои сообщения
Вы не можете голосовать в опросах
Вы не можете прикреплять файлы к сообщениям
Вы можете скачивать файлы