Loading...
Error

Скачать Лучше звоните Солу / Better Call Saul [2018](Сезон 4, Серия 1-6 из 10 )(Колин Бакси, Адам Бернштейн) [Драма, комедия, криминал, WEB-DLRip][1080p][ Lostfilm+Jaskier+BaibaKО+Gears Media+GostFilm+Kubik V Kube+Eng]+[Subs ENG+Rus] торрент без регистрации

Статистика раздачи
Размер:  21,13 GB   |    Скачан:  214 раз
Сидов:  2  [  0 KB/s  ]  
 
 
 
Автор Сообщение

Nikolai.Baranov

[] 





Лучше звоните Солу / Better Call Saul Сезон 4, Серия 1-6 из 10




Год выпуска: 2018
Выпущено: США , High Bridge Productions, Crystal Diner Productions, Gran Via Productions
Жанр:Драма, комедия, криминал
Продолжительность: 00:50:00
Сезон:4
Серия: 1-6
Количество серий в сезоне: 10

Озвучка 1: - Профессиональный многоголосый -Lostfilm- Русский

Озвучка2: Профессиональный многоголосый - Jaskier -Русский

Озвучка 3: Профессиональный многоголосый - BaibaKo -Русский

Озвучка 4: Профессиональный многоголосый - GostFilm -Русский

Озвучка 5: Профессиональный двухголосый - Gears Media -Русский

Озвучка 6: Профессиональный двухголосый - Kubik V Kube -Русский

Озвучка 7: Профессиональный многоголосый - Английский - Оригинал

Субтитры: : Russian, English, English SDH

MDB

Режиссер: Колин Бакси, Адам Бернштейн, Винс Гиллиган

В ролях: Боб Оденкёрк, Джонатан Бэнкс, Ри Сихорн, Майкл МакКин, Патрик Фабиан, Майкл Мэндо, Керри Кондон, Эйлин Фогарти, Стив Ларесэ, Джули Энн Эмери, Джереми Шамос, Виктория Пэм-Гилкрист, Ким Лан Т. Пэм, Пау Тхи Дуонг, Дэннис Буцикарис, Ген Н. Чавес, Брайан Барела, Винсент Фуэнтес, Эд Бегли мл., Марк Прокш


История об испытаниях и невзгодах, которые приходится преодолеть Солу Гудману, адвокату по уголовным делам, в тот период, когда он пытается открыть свою собственную адвокатскую контору в Альбукерке, штат Нью-Мексико.




Качество :WEB-DLRip 1080p
Формат: MKV
Видео кодек: H264
Видео: 9675Кбит/сек,1920х1080(16.9),в 23.976кадр/сек,AVC (High@L4.1)(CABAC/4 Ref Frames)

Аудио Кодек:AC3

Аудио #1:AC3 640 Kbps, 48.0 KHz, 6 ch- Lostfilm -Русский

Аудио #2:AC3 , 384 Kbps, 48.0 KHz, 6 ch- Jaskier -Русский

Аудио #3:AC3 , 384 Kbps, 48.0 KHz, 6 ch- BaibaKo -Русский

Аудио #4:AC3 , 384 Kbps, 48.0 KHz, 6 ch- GostFilm -Русский

Аудио #5:AC3 , 384 Kbps, 48.0 KHz, 6 ch- Gears Media -Русский

Аудио #6:AC3 , 384 Kbps, 48.0 KHz, 6 ch- Kubik V Kube -Русский

Аудио #7: AC3, 384 Kbps, 48.0 KHz,6 ch - - English - Оригинал


Лучше звоните Солу / Better Call Saul [2018](Сезон 4, Серия 1-6 из 10 )(Колин Бакси, Адам Бернштейн) [Драма, комедия, криминал, WEB-DLRip][720p][ Lostfilm+Jaskier+BaibaKО+Gears Media+GostFilm+Kubik V Kube+Eng]+[Subs ENG+Rus]



Звуковая дорожка сделана путем наложения чистого голоса озвучивателей на центральный канал оригинальной дорожки. Качество идентично звуковой дорожке.




4 сезон 1 серия - Дым - Smoke
4 сезон 2 серия - Вдох - Breathe
4 сезон 3 серия - Нечто прекрасное - Something Beautiful
4 сезон 4 серия - Разговор - Talk
4 сезон 5 серия - Ничего себе поездочка - Quite a Ride
4 сезон 6 серия - Пиньяты - Piñata




Общее
Уникальный идентификатор : 285047873471352390030946153239960199726 (0xD6723937F78B32782F1A64211861A22E)
Полное имя : C:\Nikolai.Baranov & PIRATIYA\Лучше звоните Солу - Better Call Saul\BETTER_CALL_SAUL_S04_Н264_DD5.1_N.B_HD_1080_6xRus_Eng\Better_Call_Saul_S04E01_Н264_DD5.1_N.B_HD_1080_6xRus_Eng.mkv
Формат : Matroska
Версия формата : Version 4 / Version 2
Размер файла : 4,37 Гбайт
Продолжительность : 48 м. 47 с.
Общий поток : 12,8 Мбит/сек
Название фильма : Better Call Saul S04E01 @ Nikolai.Baranov & PIRATIYA
Дата кодирования : UTC 2018-08-17 10:34:11
Программа кодирования : mkvmerge v25.0.0 ('Prog Noir') 64-bit
Библиотека кодирования : libebml v1.3.6 + libmatroska v1.4.9

Видео
Идентификатор : 1
Формат : AVC
Формат/Информация : Advanced Video Codec
Профиль формата : High@L4.1
Настройки формата : CABAC / 4 Ref Frames
Параметр CABAC формата : Да
Параметр RefFrames формата : 4 кадра
Идентификатор кодека : V_MPEG4/ISO/AVC
Продолжительность : 48 м. 31 с.
Битрейт : 9675 Кбит/сек
Ширина : 1920 пикселей
Высота : 1080 пикселей
Соотношение сторон : 16:9
Режим частоты кадров : Постоянный
Частота кадров : 23,976 (24000/1001) кадра/сек
Цветовое пространство : YUV
Субдискретизация насыщенности : 4:2:0
Битовая глубина : 8 бит
Тип развёртки : Прогрессивная
Бит/(Пиксели*Кадры) : 0.195
Размер потока : 3,28 Гбайт (75%)
Заголовок : Better_Call_Saul_S04E01_Н264_DD5.1_N.B_HD_1080_6xRus_Eng
Библиотека кодирования : x264 core 148 r2744 b97ae06
Настройки программы : cabac=1 / ref=4 / deblock=1:-3:-3 / analyse=0x3:0x133 / me=umh / subme=10 / psy=1 / psy_rd=1.00:0.00 / mixed_ref=1 / me_range=48 / chroma_me=1 / trellis=2 / 8x8dct=1 / cqm=0 / deadzone=21,11 / fast_pskip=0 / chroma_qp_offset=-2 / threads=24 / lookahead_threads=4 / sliced_threads=0 / nr=0 / decimate=0 / interlaced=0 / bluray_compat=0 / constrained_intra=0 / bframes=9 / b_pyramid=0 / b_adapt=2 / b_bias=0 / direct=3 / weightb=1 / open_gop=0 / weightp=2 / keyint=240 / keyint_min=23 / scenecut=40 / intra_refresh=0 / rc_lookahead=60 / rc=crf / mbtree=0 / crf=18.0 / qcomp=0.60 / qpmin=10 / qpmax=51 / qpstep=4 / vbv_maxrate=62500 / vbv_bufsize=78125 / crf_max=0.0 / nal_hrd=none / filler=0 / ip_ratio=1.40 / pb_ratio=1.30 / aq=3:0.70
Язык : Russian
Default : Да
Forced : Нет

Аудио #1
Идентификатор : 6
Формат : AC-3
Формат/Информация : Audio Coding 3
Идентификатор кодека : A_AC3
Продолжительность : 48 м. 31 с.
Вид битрейта : Постоянный
Битрейт : 640 Кбит/сек
Каналы : 6 каналов
Расположение каналов : Front: L C R, Side: L R, LFE
Частота : 48,0 КГц
Частота кадров : 31,250 кадров/сек (1536 SPF)
Битовая глубина : 16 бит
Метод сжатия : С потерями
Размер потока : 222 Мбайт (5%)
Заголовок : MVO LostFilm @DD5.1 AC3, 640 Kbps, 48.0 KHz, 6 ch
Язык : Russian
ServiceKind/String : Complete Main
Default : Да
Forced : Нет

Аудио #2
Идентификатор : 7
Формат : AC-3
Формат/Информация : Audio Coding 3
Идентификатор кодека : A_AC3
Продолжительность : 48 м. 31 с.
Вид битрейта : Постоянный
Битрейт : 384 Кбит/сек
Каналы : 6 каналов
Расположение каналов : Front: L C R, Side: L R, LFE
Частота : 48,0 КГц
Частота кадров : 31,250 кадров/сек (1536 SPF)
Битовая глубина : 16 бит
Метод сжатия : С потерями
Размер потока : 133 Мбайт (3%)
Заголовок : MVO Jaskier @DD5.1 AC3, 384 Kbps, 48.0 KHz, 6 ch
Язык : Russian
ServiceKind/String : Complete Main
Default : Нет
Forced : Нет

Аудио #3
Идентификатор : 8
Формат : AC-3
Формат/Информация : Audio Coding 3
Идентификатор кодека : A_AC3
Продолжительность : 48 м. 46 с.
Вид битрейта : Постоянный
Битрейт : 384 Кбит/сек
Каналы : 6 каналов
Расположение каналов : Front: L C R, Side: L R, LFE
Частота : 48,0 КГц
Частота кадров : 31,250 кадров/сек (1536 SPF)
Битовая глубина : 16 бит
Метод сжатия : С потерями
Размер потока : 134 Мбайт (3%)
Заголовок : MVO BaibaKo @DD5.1 AC3, 384 Kbps, 48.0 KHz, 6 ch
Язык : Russian
ServiceKind/String : Complete Main
Default : Нет
Forced : Нет

Аудио #4
Идентификатор : 9
Формат : AC-3
Формат/Информация : Audio Coding 3
Идентификатор кодека : A_AC3
Продолжительность : 48 м. 47 с.
Вид битрейта : Постоянный
Битрейт : 384 Кбит/сек
Каналы : 6 каналов
Расположение каналов : Front: L C R, Side: L R, LFE
Частота : 48,0 КГц
Частота кадров : 31,250 кадров/сек (1536 SPF)
Битовая глубина : 16 бит
Метод сжатия : С потерями
Размер потока : 134 Мбайт (3%)
Заголовок : MVO GearsMedia @DD5.1 AC3, 384 Kbps, 48.0 KHz, 6 ch
Язык : Russian
ServiceKind/String : Complete Main
Default : Нет
Forced : Нет

Аудио #5
Идентификатор : 10
Формат : AC-3
Формат/Информация : Audio Coding 3
Идентификатор кодека : A_AC3
Продолжительность : 48 м. 31 с.
Вид битрейта : Постоянный
Битрейт : 384 Кбит/сек
Каналы : 6 каналов
Расположение каналов : Front: L C R, Side: L R, LFE
Частота : 48,0 КГц
Частота кадров : 31,250 кадров/сек (1536 SPF)
Битовая глубина : 16 бит
Метод сжатия : С потерями
Размер потока : 133 Мбайт (3%)
Заголовок : MVO Kubik v Kube @DD5.1 AC3, 384 Kbps, 48.0 KHz, 6 ch
Язык : Russian
ServiceKind/String : Complete Main
Default : Нет
Forced : Нет

Аудио #6
Идентификатор : 11
Формат : AC-3
Формат/Информация : Audio Coding 3
Идентификатор кодека : A_AC3
Продолжительность : 48 м. 31 с.
Вид битрейта : Постоянный
Битрейт : 640 Кбит/сек
Каналы : 6 каналов
Расположение каналов : Front: L C R, Side: L R, LFE
Частота : 48,0 КГц
Частота кадров : 31,250 кадров/сек (1536 SPF)
Битовая глубина : 16 бит
Метод сжатия : С потерями
Размер потока : 222 Мбайт (5%)
Заголовок : Original@DD5.1 AC3 ,640 Kbps, 48.0 KHz, 6 ch
Язык : English
ServiceKind/String : Complete Main
Default : Нет
Forced : Нет

Аудио #7
Идентификатор : 12
Формат : AC-3
Формат/Информация : Audio Coding 3
Идентификатор кодека : A_AC3
Продолжительность : 48 м. 47 с.
Вид битрейта : Постоянный
Битрейт : 384 Кбит/сек
Каналы : 6 каналов
Расположение каналов : Front: L C R, Side: L R, LFE
Частота : 48,0 КГц
Частота кадров : 31,250 кадров/сек (1536 SPF)
Битовая глубина : 16 бит
Метод сжатия : С потерями
Размер потока : 134 Мбайт (3%)
Заголовок : MVO GostFilm @DD5.1 AC3, 384 Kbps, 48.0 KHz, 6 ch
Язык : Russian
ServiceKind/String : Complete Main
Default : Нет
Forced : Нет

Текст #1
Идентификатор : 2
Формат : UTF-8
Идентификатор кодека : S_TEXT/UTF8
Идентификатор кодека/Информация : UTF-8 Plain Text
Продолжительность : 1 м. 55 с.
Битрейт : 47 бит/сек
ElementCount : 29
Размер потока : 685 байт (0%)
Заголовок : Forced
Язык : English
Default : Да
Forced : Нет

Текст #2
Идентификатор : 3
Формат : UTF-8
Идентификатор кодека : S_TEXT/UTF8
Идентификатор кодека/Информация : UTF-8 Plain Text
Продолжительность : 47 м. 13 с.
Битрейт : 53 бит/сек
ElementCount : 416
Размер потока : 18,5 Кбайт (0%)
Заголовок : Rus
Язык : Russian
Default : Нет
Forced : Нет

Текст #3
Идентификатор : 4
Формат : UTF-8
Идентификатор кодека : S_TEXT/UTF8
Идентификатор кодека/Информация : UTF-8 Plain Text
Продолжительность : 47 м. 29 с.
Битрейт : 41 бит/сек
ElementCount : 441
Размер потока : 14,5 Кбайт (0%)
Заголовок : Original - SDH
Язык : English
Default : Нет
Forced : Нет

Текст #4
Идентификатор : 5
Формат : UTF-8
Идентификатор кодека : S_TEXT/UTF8
Идентификатор кодека/Информация : UTF-8 Plain Text
Продолжительность : 46 м. 27 с.
Битрейт : 36 бит/сек
ElementCount : 364
Размер потока : 12,5 Кбайт (0%)
Заголовок : Original
Язык : English
Default : Нет
Forced : Нет

Меню
00:00:00.000 : en:Глава 01 / en:Глава 01 / en:Глава 01 / en:Глава 01 / en:Глава 01 / en:Глава 01 / en:Глава 01 / en:Глава 01 / en:Глава 01 / en:Глава 01 / en:Глава 01 / en:Глава 01




Сезон 4

Внимание! Раздача пополняется по мере выхода новых серий!



Раздача ведётся путём добавления новых серий; при каждом добавлении создётся новый торрент.
Чтобы начать докачку новой серии, пользователям необходимо сделать следующее:
1. остановить скачивание,
2. удалить старый торрент у себя из клиента (старые серии удалять не надо),
3. скачать новый торрент и запустить его у себя в клиенте вместо старого, при этом указать клиенту путь в старую папку, куда и должно происходить скачивание новых серий.

Ваш клиент при этом должен произвести хеширование (проверку) старой папки (если не производит сам - помогите ему сделать это), и будет докачивать только те серии которых у вас ещё нет. Старые серии при этом не удаляются, а продолжают раздаваться!

Eсли вы уже удалили старые серии, то предотвратить повторную закачку старых серий можно, отжав галочку в соответсвующих местах при запуске нового торрента. По возможности, желательно не удалять старые серии как можно дольше, чтобы релизёр не столько продолжал раздавать старые серии, а смог сконцентрироваться на новых.

Совет для тех, кто не хочет ждать перехеширования:
Создайте ещё одну папку рядом с папкой сериала (рядом, а не в ней!!!). Каждую новую серию после удачной загрузки копируйте в новую папку так чтобы ваша основная папка всегда была пуста. Когда ваш новый торрент предложит вам закачать все файлы, выберете только последнюю. Для сидирования же укажите адрес новой папки.

Как закачать отдельный файл из торрента или докачать ранее пропущенные файлы торрента!

1. Открыть торрент
2. Снять галки с тех файлов торрента, которые мы не хотим закачивать. Оставляем только на нужных нам файлах (файле).
3. Нажать О.К.

В клиенте utorrent

Инструкция

1) Открыть торрент


2) Снять галки с тех файлов торрента, которые мы не хотим закачивать:

* либо вручную, снимая с каждого файла галку( скрин №1)
* либо, нажав кнопку "Снять метки (Select None)", сняв сразу со всех файлов(скрин №2)
№1

№2

Оставляем только на нужных нам файлах (файле).

3)Нажать О.К






Внимание!!! 15.09. 2018. РАЗДАЧА ОБНОВЛЕНА. ДОБАВЛЕНА 6-СЕРИЯ. ОБНОВИТЕ ТОРЕНТ ФАЙЛ. ПРИЯТНОГО ПРОСМОТРА .

Релиз от: Nikolai.Baranov & PIRATIYA - Поблагодарить:
ЯД: 410017546713876











Скачать Лучше.звоните.Солу.Better.Call.Saul.[2018](Сезон.4.Серия.1-6.из.10.)(Колин.Бакси.Адам.Бернштейн).[Драма.комедия.криминал.WEB-DLRip][1080p][.Lostfilm+Jaskier+BaibaKО+Gears.Media+GostFilm+Kubik.V.Kube+Eng]+[Subs.ENG+Rus].torrent без регистрации
Золото ЗОЛОТАЯ РАЗДАЧА! СКАЧАННОЕ НЕ ЗАСЧИТЫВАЕТСЯ! Золото
Дата: Зарегистрирован   [ Тип: внешний ] Как тут cкачать?
MAGNET ссылка
MAGNET ссылка


Скачать .torrent

110 KB

Статус: проверено DHT
Скачан: торрент - 214 раз, раздача полностью - 0 раз
Размер: 21,13 GB
Оценка:  - (Голосов: 0)
Поблагодарили: 0
Поделиться ссылкой на эту раздачу с друзьями:
В контактеFacebookОдноклассникиTwitterLivejournalМой МирLiveinternet
 

 
Показать сообщения:    


Вы не можете начинать темы
Вы не можете отвечать на сообщения
Вы не можете редактировать свои сообщения
Вы не можете удалять свои сообщения
Вы не можете голосовать в опросах
Вы не можете прикреплять файлы к сообщениям
Вы можете скачивать файлы