Loading...
Error

Скачать Достать коротышку / Get Shorty (Сезон 02, серии 01-05 из 10) (Адам Аркин, Дэниэл Эттиэс, Эдвард Бьянчи) [2018, комедия, криминал, WEBRip] [DVO] (Hamsterstudio) торрент без регистрации

Статистика раздачи
Размер:  2,34 GB   |    Скачан:  112 раз
Сидов:  1  [  0 KB/s  ]  
 
 
 
Автор Сообщение

leon030982

[] 

Достать коротышку / Get Shorty

Информация о фильме:

✦ Год выхода: 2018
✦ Страна: США / Great FX
✦ Жанр: комедия, криминал
✦ Продолжительность: 1x ~01:00:00
✦ Перевод: Профессиональный (двухголосый, закадровый) Hamsterstudio
✦ Субтитры: Отсутствуют

✦ Режиссер: Адам Аркин, Дэниэл Эттиэс, Эдвард Бьянчи

✦ В ролях: Крис О Дауд, Рэй Романо, Джиллиан Вигмэн, Кристин Элиз, Люси Уолтерс, Кристоффер Полаха, Шон Бриджерс, Лора Каннингэм, Меган Стивенсон, Брэд Картер и др.

Описание фильма:

Майлз Дейли является наемником самой опасной криминальной группировки в Неваде. Ради своей дочери он решает сменить профессию и стать кинопродюсером. С этой целью Майлз отправляется в Голливуд снимать кино, благодаря которому он надеется отмыть преступные деньги. В Лос-Анджелесе он знакомится с неудачливым продюсером третьесортных фильмов, который становится его партнером. Однако бывшие коллеги Майлза не хотят его отпускать и вскоре вслед за ним приезжают в Лос-Анджелес. Сериал «Достать коротышку» снят по мотивам одноименного романа Элмора Леонарда и является ремейком фильма 1995 года.



Информация о файле:

✦ Качество: WEBRip
✦ Кодек: XviD | AVI
✦ Видео: 720x400 (1.80:1), 23.976 fps, XviD ~1100 kbps
✦ Аудио: 48 kHz, MP3, 2 ch, ~128 kbps
General
Complete name : E:\Get.Shorty (Season 02) HamsterStudio\Get.Shorty.S02E01.WEBRip.HamsterStudio.avi
Format : AVI
Format/Info : Audio Video Interleave
File size : 539 MiB
Duration : 1 h 2 min
Overall bit rate : 1 214 kb/s
Writing application : VirtualDubMod 1.5.10.2 (build 2540/release)
Writing library : VirtualDubMod build 2540/release

Video
ID : 0
Format : MPEG-4 Visual
Format profile : Advanced Simple@L5
Format settings : BVOP2
Format settings, BVOP : 2
Format settings, QPel : No
Format settings, GMC : No warppoints
Format settings, Matrix : Default (H.263)
Muxing mode : Packed bitstream
Codec ID : XVID
Codec ID/Hint : XviD
Duration : 1 h 2 min
Bit rate : 1 077 kb/s
Width : 720 pixels
Height : 400 pixels
Display aspect ratio : 16:9
Frame rate : 23.976 (24000/1001) FPS
Color space : YUV
Chroma subsampling : 4:2:0
Bit depth : 8 bits
Scan type : Progressive
Compression mode : Lossy
Bits/(Pixel*Frame) : 0.156
Stream size : 478 MiB (89%)
Writing library : XviD 66

Audio
ID : 1
Format : MPEG Audio
Format version : Version 1
Format profile : Layer 3
Format settings : Joint stereo / MS Stereo
Mode : Joint stereo
Mode extension : MS Stereo
Codec ID : 55
Codec ID/Hint : MP3
Duration : 1 h 2 min
Bit rate mode : Constant
Bit rate : 128 kb/s
Channel(s) : 2 channels
Sampling rate : 48.0 kHz
Compression mode : Lossy
Stream size : 56.8 MiB (11%)
Alignment : Aligned on interleaves
Interleave, duration : 42 ms (1.00 video frame)
Interleave, preload duratio : 504 ms
Когда раздача ведётся путём добавления новых серий, при каждом добавлении создаётся новый торрент. Чтобы начать докачку новой серии, пользователям необходимо сделать следующее:

(1) остановить скачивание,

(2) удалить старый торрент у себя из клиента (старые серии удалять не надо),

(3) скачать новый торрент и запустить его у себя в клиенте вместо старого, при этом указать клиенту путь в старую папку, куда и должно происходить скачивание новых серий.

Ваш клиент при этом должен произвести хеширование (проверку) старой папки (если не производит сам - помогите ему сделать это), и будет докачивать только те серии, которых у вас ещё нет. Старые серии при этом не удаляются, а продолжают раздаваться!

Eсли вы уже удалили старые серии, то предотвратить повторную закачку старых серий можно, отжав галочку в соответсвующих местах при запуске нового торрента. По возможности, желательно не удалять старые серии как можно дольше, чтобы релизёр не столько продолжал раздавать старые серии, а смог сконцентрироваться на новых.



Скачать Достать.коротышку.Get.Shorty.(Сезон.02.серии.01-05.из.10).(Адам.Аркин.Дэниэл.Эттиэс.Эдвард.Бьянчи).[2018.комедия.криминал.WEBRip].[DVO].(Hamsterstudio).torrent без регистрации
Золото ЗОЛОТАЯ РАЗДАЧА! СКАЧАННОЕ НЕ ЗАСЧИТЫВАЕТСЯ! Золото
Дата: Зарегистрирован   [ Тип: внутренний ] Как тут cкачать?
MAGNET ссылка
MAGNET ссылка


Скачать .torrent

13 KB

Статус: проверено DHT
Скачан: торрент - 112 раз, раздача полностью - 0 раз
Размер: 2,34 GB
Оценка:  - (Голосов: 0)
Поблагодарили: 0
Поделиться ссылкой на эту раздачу с друзьями:
В контактеFacebookОдноклассникиTwitterLivejournalМой МирLiveinternet
 

 
Показать сообщения:    


Вы не можете начинать темы
Вы не можете отвечать на сообщения
Вы не можете редактировать свои сообщения
Вы не можете удалять свои сообщения
Вы не можете голосовать в опросах
Вы не можете прикреплять файлы к сообщениям
Вы можете скачивать файлы