Loading...
Error

Скачать Майянцы / Mayans M.C. (Сезон 01, серии 01-02 из 10) (Норберто Барба, Гай Ферленд, Курт Саттер) [2018, Драма, криминал, триллер, WEBRip 720p] [DVO] (Hamsterstudio) торрент без регистрации

Статистика раздачи
Размер:  2,9 GB   |    Скачан:  81 раз
Сидов:  1  [  0 KB/s  ]  
 
 
 
Автор Сообщение

leon030982

[] 

Майянцы / Mayans M.C.

Информация о сериале

Год выпуска: 2018
Жанр: Драма, криминал, триллер
Выпущено: США, Канада, Seven24 Films
Продолжительность: 1 x ~ 00:55:00
Перевод: Профессиональный (двухголосый)

Режиссер: Норберто Барба, Гай Ферленд, Курт Саттер

В ролях: Эдвард Джеймс Олмос, Джон Ортиз, Клинт Юнг, Эрик Од, Рик Крамер, Рэймонд Крус, Дэнни Грюнберг, Дж. ЛаРоуз, Жаклин Обрадорс, Александра Баррето, Марко Моралес, Сизар Делеон, Пабло Рамос, Том Биллет, Артуро Дель Пуэрто, Майкл Ирби, Педро Лопез, Дэниэл Лухан, Эмилио Ривера, Брайант Ромо, Гари Краус, Эфрат Дор, Джои Лучеро, Дэн Кули, Ганс Марреро, Сара Болгер, Винсент Варгас, Клэйтон Кардена

О сериале:

Сериал является спин-оффом популярного американского культового сериала о клубе байкеров "Сыны Анархии". В центре истории оказывается Эз Рейес, который возвращается в свой родной город, после тюремного заключения, чтобы вступить в ряды местного клуба байкеров, чтобы отомстить влиятельному наркокартелю.



Файл

Качество: WEBRip (720p)
Видео: MPEG-4 AVC, ~ 2886 Кбит/с, 1280x720
Аудио: AC3, 2 ch, 384 Кбит/с
Субтитры: Отсутствуют
General
Unique ID : 202148659466881197753770733290611585138 (0x98146A67F0AC2F9E858B949BF2BCB072)
Complete name : E:\Mayans.MC.s01e01.720p.WEBRip.HamsterStudio.Org.mkv
Format : Matroska
Format version : Version 2
File size : 1.61 GiB
Duration : 1 h 9 min
Overall bit rate : 3 337 kb/s
Encoded date : UTC 2018-09-02 22:16:48
Writing application : mkvmerge v7.8.0 ('River Man') 32bit built on Apr 3 2015 12:11:22
Writing library : libebml v1.3.1 + libmatroska v1.4.2

Video
ID : 1
Format : AVC
Format/Info : Advanced Video Codec
Format profile : Main@L4.1
Format settings : CABAC / 3 Ref Frames
Format settings, CABAC : Yes
Format settings, RefFrames : 3 frames
Codec ID : V_MPEG4/ISO/AVC
Duration : 1 h 9 min
Bit rate : 2 886 kb/s
Width : 1 280 pixels
Height : 720 pixels
Display aspect ratio : 16:9
Frame rate mode : Constant
Frame rate : 23.976 (24000/1001) FPS
Standard : NTSC
Color space : YUV
Chroma subsampling : 4:2:0
Bit depth : 8 bits
Scan type : Progressive
Bits/(Pixel*Frame) : 0.131
Stream size : 1.39 GiB (87%)
Language : English
Default : Yes
Forced : No
Color range : Limited
Color primaries : BT.709
Transfer characteristics : BT.709
Matrix coefficients : BT.709

Audio
ID : 2
Format : AC-3
Format/Info : Audio Coding 3
Format settings, Endianness : Big
Codec ID : A_AC3
Duration : 1 h 9 min
Bit rate mode : Constant
Bit rate : 384 kb/s
Channel(s) : 2 channels
Channel positions : Front: L R
Sampling rate : 48.0 kHz
Frame rate : 31.250 FPS (1536 SPF)
Bit depth : 16 bits
Compression mode : Lossy
Stream size : 190 MiB (12%)
Service kind : Complete Main
Default : Yes
Forced : No
Внимание! Раздача ведётся путём добавления новых серий; при каждом добавлении создаётся новый торрент. Чтобы начать докачку новой серии, пользователям необходимо сделать следующее:
Остановить скачивание.
Удалить старый торрент у себя из клиента (старые серии удалять не надо).
Скачать новый торрент и запустить его у себя в клиенте вместо старого, при этом указать клиенту путь в старую папку куда и должно происходить скачивание новых серий.

Ваш клиент при этом должен произвести хеширование (проверку) старой папки (если не производит сам - помогите ему сделать это), и будет докачивать только те серии которых у вас ещё нет. Старые серии при этом не удаляются, а продолжают раздаваться!
Eсли вы уже удалили старые серии, то предотвратить повторную закачку старых серий можно, отжав галочку в соответсвующих местах при запуске нового торрента. По возможности, желательно не удалять старые серии как можно дольше чтобы релизёр не столько продолжал раздавать старые серии, а смог сконцентрироваться на новых.



Скачать Майянцы.Mayans.M.C.(Сезон.01.серии.01-02.из.10).(Норберто.Барба.Гай.Ферленд.Курт.Саттер).[2018.Драма.криминал.триллер.WEBRip.720p].[DVO].(Hamsterstudio).torrent без регистрации
Золото ЗОЛОТАЯ РАЗДАЧА! СКАЧАННОЕ НЕ ЗАСЧИТЫВАЕТСЯ! Золото
Дата: Зарегистрирован   [ Тип: внутренний ] Как тут cкачать?
MAGNET ссылка
MAGNET ссылка


Скачать .torrent

15 KB

Статус: проверено DHT
Скачан: торрент - 81 раз, раздача полностью - 0 раз
Размер: 2,9 GB
Оценка:  - (Голосов: 0)
Поблагодарили: 1
Поделиться ссылкой на эту раздачу с друзьями:
В контактеFacebookОдноклассникиTwitterLivejournalМой МирLiveinternet
 

 
Показать сообщения:    


Вы не можете начинать темы
Вы не можете отвечать на сообщения
Вы не можете редактировать свои сообщения
Вы не можете удалять свои сообщения
Вы не можете голосовать в опросах
Вы не можете прикреплять файлы к сообщениям
Вы можете скачивать файлы