Loading...
Error

Скачать Озарк / Ozark / Сезон: 2 / Серии: 1-5 из 10 (Джейсон Бейтман, Алик Сахаров, Аманда Марсалис) [2018, Триллер, драма, криминал, WEBRip] [MVO] (NewStudio) + Original торрент без регистрации

Статистика раздачи
Размер:  3,58 GB   |    Скачан:  80 раз
Сидов:  1  [  0 KB/s  ]  
 
 
 
Автор Сообщение

leon030982

[] 

Озарк / Ozark


Год выпуска: 2018
Страна: США
Жанр: Триллер, драма, криминал
Продолжительность: 00:50:00
Перевод: Профессиональный (многоголосый закадровый) - NewStudio

Режиссёр: Джейсон Бейтман, Алик Сахаров, Аманда Марсалис

В ролях: Тревор Лонг, Джейсон Бейтман, Лора Линни, Кевин Л. Джонсон, Роберт С. Тревилер, Эван Джордж Вуразерис, МакКинли Белчер, Нельсон Бонилья и др.


Финансовый консультант Марти Бёрд вместе с женой Вэнди и остальными членами семьи вынужден переехать из престижного предместья Чикаго в курортный городок Озарк штата Миссури. К неожиданному переезду главного героя вынудили крупные долги, и на новом месте он надеется поправить своё финансовое положение.



Качество: WEBRip
Формат: AVI
Видео: 720х360, 23.976 fps, XviD build 67, 1405 Kbps, 0.21 Bits/Pixel
Аудио 1: MP3, 48.0 KHz, 2 ch, 128 Кбит/с [Rus]
Аудио 2: MP3, 48.0 KHz, 2 ch, 128 Кбит/с [Eng]
Субтитры: Отсутствуют
Автор перевода: Александра Иванова, Юлия Мейер, Булат Карабасов, Никита Симаков
Рип: DriverV
General
Complete name : Downloads\Озарк (сезон 2) Ozark (2018) WEBRip - NewStudio\Ozark.S02E01.WEBRip.Rus.Eng.DV.NewStudio.avi
Format : AVI
Format/Info : Audio Video Interleave
File size : 725 MiB
Duration : 1h 0mn
Overall bit rate : 1 675 Kbps
Writing application : VirtualDubModRus 1.5.10.2 (build 2542/release)
Writing library : VirtualDubMod build 2542/release
Video #0
ID : 0
Format : MPEG-4 Visual
Format profile : Advanced Simple@L5
Format settings, BVOP : 2
Format settings, QPel : No
Format settings, GMC : No warppoints
Format settings, Matrix : Default (H.263)
Codec ID : XVID
Codec ID/Hint : XviD
Duration : 1h 0mn
Bit rate : 1 405 Kbps
Width : 720 pixels
Height : 360 pixels
Display aspect ratio : 2.000
Frame rate : 23.976 fps
Color space : YUV
Chroma subsampling : 4:2:0
Bit depth : 8 bits
Scan type : Progressive
Compression mode : Lossy
Bits/(Pixel*Frame) : 0.226
Stream size : 608 MiB (84%)
Writing library : XviD 67
Audio #1
ID : 1
Format : MPEG Audio
Format version : Version 1
Format profile : Layer 3
Mode : Joint stereo
Mode extension : MS Stereo
Codec ID : 55
Codec ID/Hint : MP3
Duration : 1h 0mn
Bit rate mode : Constant
Bit rate : 128 Kbps
Channel(s) : 2 channels
Sampling rate : 48.0 KHz
Compression mode : Lossy
Stream size : 55.4 MiB (8%)
Alignment : Aligned on interleaves
Interleave, duration : 42 ms (1.00 video frame)
Interleave, preload duration : 504 ms
Audio #2
ID : 2
Format : MPEG Audio
Format version : Version 1
Format profile : Layer 3
Mode : Joint stereo
Mode extension : MS Stereo
Codec ID : 55
Codec ID/Hint : MP3
Duration : 1h 0mn
Bit rate mode : Constant
Bit rate : 128 Kbps
Channel(s) : 2 channels
Sampling rate : 48.0 KHz
Compression mode : Lossy
Stream size : 55.4 MiB (8%)
Alignment : Aligned on interleaves
Interleave, duration : 42 ms (1.00 video frame)
Interleave, preload duration : 504 ms
(1) остановить скачивание,
(2) удалить старый торрент у себя из клиента (старые серии удалять не надо),
(3) скачать новый торрент и запустить его у себя в клиенте вместо старого, при этом указать клиенту путь в старую папку куда и должно происходить скачивание новых серий.
Ваш клиент при этом должен произвести хеширование (проверку) старой папки (если не производит сам - помогите ему сделать это), и будет докачивать только те серии которых у вас ещё нет. Старые серии при этом не удаляются, а продолжают раздаваться!
Eсли вы уже удалили старые серии, то предотвратить повторную закачку старых серий можно, отжав галочку в соответсвующих местах при запуске нового торрента. По возможности, желательно не удалять старые серии как можно дольше чтобы релизёр не столько продолжал раздавать старые серии, а смог сконцентрироваться на новых.



Скачать Озарк.Ozark.Сезон.2.Серии.1-5.из.10.(Джейсон.Бейтман.Алик.Сахаров.Аманда.Марсалис).[2018.Триллер.драма.криминал.WEBRip].[MVO].(NewStudio).+.Original.torrent без регистрации
Золото ЗОЛОТАЯ РАЗДАЧА! СКАЧАННОЕ НЕ ЗАСЧИТЫВАЕТСЯ! Золото
Дата: Зарегистрирован   [ Тип: внутренний ] Как тут cкачать?
MAGNET ссылка
MAGNET ссылка


Скачать .torrent

19 KB

Статус: проверено DHT
Скачан: торрент - 80 раз, раздача полностью - 1 раз
Размер: 3,58 GB
Оценка:  - (Голосов: 0)
Поблагодарили: 1
Поделиться ссылкой на эту раздачу с друзьями:
В контактеFacebookОдноклассникиTwitterLivejournalМой МирLiveinternet
 

 
Показать сообщения:    


Вы не можете начинать темы
Вы не можете отвечать на сообщения
Вы не можете редактировать свои сообщения
Вы не можете удалять свои сообщения
Вы не можете голосовать в опросах
Вы не можете прикреплять файлы к сообщениям
Вы можете скачивать файлы