Loading...
Error

Скачать Ярмарка тщеславия / Vanity Fair / Сезон: 1 / Серии: 1-2 из 8 (Джеймс Стронг, Джонатан Энтвистл) [2018, Драма, HDTVRip 720p] [MVO] (Jaskier) + [Original] торрент без регистрации

Статистика раздачи
Размер:  1,79 GB   |    Скачан:  48 раз
Сидов:  1  [  0 KB/s  ]  
 
 
 
Автор Сообщение

leon030982

[] 

Ярмарка тщеславия / Vanity Fair


Год выпуска: 2018
Страна: Великобритания
Жанр: Драма
Продолжительность: ~ 00:45:00
Перевод: Профессиональный (многоголосый закадровый) | Jaskier

Режиссёр: Джеймс Стронг, Джонатан Энтвистл

В ролях: Оливия Кук, Джонни Флинн, Клаудия Джесси, Саймон Расселл Бил, Мартин Клунес, Фрэнсис де ла Тур, Дэвид Финн, Энтони Хэд, Сюранна Джоунс, Чарли Роу

Описание:Сюжет относит зрителей в начало XIX века. Европу сотрясают кровопролитные наполеоновские военные кампании. В центре повествования история двух девушек. Ребекка Шарп выросла в бедной семье. Ее мать была танцовщицей, а отец неудачливым художником, страдающим алкоголизмом. Бекки теряет родителей и оказывается в еще более бедственном положении, чем раньше. От родителей она унаследовала лишь привлекательную внешность. Девушка зарабатывает себе на жизнь, преподавая французский язык в пансионе, где живет и учится. Эмилия, напротив, привыкла к роскоши и достатку. Она из семьи преуспевающего бизнесмена, у нее предостаточно денег и поклонников. С Бекки их связывают дружеские отношения, несмотря на разницу социальных статусов. По окончании пансиона Эмилия рассчитывает выйти замуж за богатого наследника, офицера Джорджа Осборна. А Бекки находит работу горничной.



Качество: HDTVRip 720p
Формат: MKV
Видео: X264, ~2455 kbps, 1280x640 (2,000), 25.000 fps
Аудио 1: AC3, 48,0 КГц, 2 ch, 192 kbps - RUS
Аудио 2: AC3, 48,0 КГц, 2 ch, 192 kbps - ENG
Субтитры: нет
Переведено и озвучено: студией Jaskier
[Общее
Уникальный идентификатор                 : 151662298496510059588428743727831169574 (0x721918A1471751BADF3FCDC7A39DBA26)
Полное имя                               : F:\Jaskier\Vanity.Fair Season 1 (HDTV l 720p l Jaskier)\Vanity.Fair.S01E01.HDTV.720p.Jaskier.mkv
Формат                                   : Matroska
Версия формата                           : Version 4 / Version 2
Размер файла                             : 967 Мбайт
Продолжительность                        : 47 м. 33 с.
Общий поток                              : 2842 Кбит/сек
Дата кодирования                         : UTC 2018-09-06 09:35:54
Программа кодирования                    : mkvmerge v19.0.0 ('Brave Captain') 64-bit
Библиотека кодирования                   : libebml v1.3.5 + libmatroska v1.4.8

Видео
Идентификатор                            : 1
Формат                                   : AVC
Формат/Информация                        : Advanced Video Codec
Профиль формата                          : High@L4.1
Настройки формата                        : CABAC / 5 Ref Frames
Параметр CABAC формата                   : Да
Параметр RefFrames формата               : 5 кадров
Идентификатор кодека                     : V_MPEG4/ISO/AVC
Продолжительность                        : 47 м. 33 с.
Битрейт                                  : 2455 Кбит/сек
Ширина                                   : 1280 пикселей
Высота                                   : 640 пикселей
Соотношение сторон                       : 2,000
Режим частоты кадров                     : Постоянный
Частота кадров                           : 25,000 кадров/сек
Цветовое пространство                    : YUV
Субдискретизация насыщенности            : 4:2:0
Битовая глубина                          : 8 бит
Тип развёртки                            : Прогрессивная
Бит/(Пиксели*Кадры)                      : 0.120
Размер потока                            : 835 Мбайт (86%)
Библиотека кодирования                   : x264 core 155 r2901 7d0ff22
Настройки программы                      : cabac=1 / ref=5 / deblock=1:0:0 / analyse=0x3:0x113 / me=hex / subme=8 / psy=1 / psy_rd=1.00:0.00 / mixed_ref=1 / me_range=16 / chroma_me=1 / trellis=2 / 8x8dct=1 / cqm=0 / deadzone=21,11 / fast_pskip=1 / chroma_qp_offset=-2 / threads=12 / lookahead_threads=2 / sliced_threads=0 / nr=0 / decimate=1 / interlaced=0 / bluray_compat=0 / constrained_intra=0 / bframes=3 / b_pyramid=2 / b_adapt=1 / b_bias=0 / direct=3 / weightb=1 / open_gop=0 / weightp=2 / keyint=250 / keyint_min=25 / scenecut=40 / intra_refresh=0 / rc_lookahead=50 / rc=crf / mbtree=1 / crf=18.0 / qcomp=0.60 / qpmin=0 / qpmax=69 / qpstep=4 / ip_ratio=1.40 / aq=1:1.00
Язык                                     : English
Default                                  : Да
Forced                                   : Нет

Аудио #1
Идентификатор                            : 2
Формат                                   : AC-3
Формат/Информация                        : Audio Coding 3
Идентификатор кодека                     : A_AC3
Продолжительность                        : 47 м. 33 с.
Вид битрейта                             : Постоянный
Битрейт                                  : 192 Кбит/сек
Каналы                                   : 2 канала
Расположение каналов                     : Front: L R
Частота                                  : 48,0 КГц
Частота кадров                           : 31,250 кадров/сек (1536 SPF)
Битовая глубина                          : 16 бит
Метод сжатия                             : С потерями
Размер потока                            : 65,3 Мбайт (7%)
Язык                                     : Russian
ServiceKind/String                       : Complete Main
Default                                  : Да
Forced                                   : Нет

Аудио #2
Идентификатор                            : 3
Формат                                   : AC-3
Формат/Информация                        : Audio Coding 3
Идентификатор кодека                     : A_AC3
Продолжительность                        : 47 м. 33 с.
Вид битрейта                             : Постоянный
Битрейт                                  : 192 Кбит/сек
Каналы                                   : 2 канала
Расположение каналов                     : Front: L R
Частота                                  : 48,0 КГц
Частота кадров                           : 31,250 кадров/сек (1536 SPF)
Битовая глубина                          : 16 бит
Метод сжатия                             : С потерями
Размер потока                            : 65,3 Мбайт (7%)
Язык                                     : English
ServiceKind/String                       : Complete Main
Default                                  : Нет
Forced                                   : Нет
Когда раздача ведётся путём добавления новых серий, при каждом добавлении создётся новый торрент. Чтобы начать докачку новой серии, пользователям необходимо сделать следующее:
(1) остановить скачивание,
(2) удалить старый торрент у себя из клиента (старые серии удалять не надо),
(3) скачать новый торрент и запустить его у себя в клиенте вместо старого, при этом указать клиенту путь в старую папку, куда и должно происходить скачивание новых серий.
Ваш клиент при этом должен произвести хеширование (проверку) старой папки (если не производит сам - помогите ему сделать это), и будет докачивать только те серии, которых у вас ещё нет. Старые серии при этом не удаляются, а продолжают раздаваться!
Eсли вы уже удалили старые серии, то предотвратить повторную закачку старых серий можно, отжав галочку в соответсвующих местах при запуске нового торрента. По возможности, желательно не удалять старые серии как можно дольше, чтобы релизёр не столько продолжал раздавать старые серии, а смог сконцентрироваться на новых.



Скачать Ярмарка.тщеславия.Vanity.Fair.Сезон.1.Серии.1-2.из.8.(Джеймс.Стронг.Джонатан.Энтвистл).[2018.Драма.HDTVRip.720p].[MVO].(Jaskier).+.[Original].torrent без регистрации
Золото ЗОЛОТАЯ РАЗДАЧА! СКАЧАННОЕ НЕ ЗАСЧИТЫВАЕТСЯ! Золото
Дата: Зарегистрирован   [ Тип: внутренний ] Как тут cкачать?
MAGNET ссылка
MAGNET ссылка


Скачать .torrent

18 KB

Статус: проверено DHT
Скачан: торрент - 48 раз, раздача полностью - 1 раз
Размер: 1,79 GB
Оценка:  - (Голосов: 0)
Поблагодарили: 0
Поделиться ссылкой на эту раздачу с друзьями:
В контактеFacebookОдноклассникиTwitterLivejournalМой МирLiveinternet
 

 
Показать сообщения:    


Вы не можете начинать темы
Вы не можете отвечать на сообщения
Вы не можете редактировать свои сообщения
Вы не можете удалять свои сообщения
Вы не можете голосовать в опросах
Вы не можете прикреплять файлы к сообщениям
Вы можете скачивать файлы