Loading...
Error

Скачать Ярмарка тщеславия / Vanity Fair / Сезон: 1 / Серии: 1-4 из 8 (Джеймс Стронг, Джонатан Энтвистл) [2018, Драма, HDTVRip] [MVO] (Jaskier) + Original торрент без регистрации

Статистика раздачи
Размер:  2,37 GB   |    Скачан:  55 раз
Сидов:  1  [  0 KB/s  ]  
 
 
 
Автор Сообщение

leon030982

[] 

Ярмарка тщеславия / Vanity Fair


Год выпуска: 2018
Страна: Великобритания
Жанр: Драма
Продолжительность: ~ 00:45:00
Перевод: Профессиональный (многоголосый закадровый) | Jaskier

Режиссёр: Джеймс Стронг, Джонатан Энтвистл

В ролях: Оливия Кук, Джонни Флинн, Клаудия Джесси, Саймон Расселл Бил, Мартин Клунес, Фрэнсис де ла Тур, Дэвид Финн, Энтони Хэд, Сюранна Джоунс, Чарли Роу

Описание: Сюжет относит зрителей в начало XIX века. Европу сотрясают кровопролитные наполеоновские военные кампании. В центре повествования история двух девушек. Ребекка Шарп выросла в бедной семье. Ее мать была танцовщицей, а отец неудачливым художником, страдающим алкоголизмом. Бекки теряет родителей и оказывается в еще более бедственном положении, чем раньше. От родителей она унаследовала лишь привлекательную внешность. Девушка зарабатывает себе на жизнь, преподавая французский язык в пансионе, где живет и учится. Эмилия, напротив, привыкла к роскоши и достатку. Она из семьи преуспевающего бизнесмена, у нее предостаточно денег и поклонников. С Бекки их связывают дружеские отношения, несмотря на разницу социальных статусов. По окончании пансиона Эмилия рассчитывает выйти замуж за богатого наследника, офицера Джорджа Осборна. А Бекки находит работу горничной.



Качество: HDTVRip
Формат: AVI
Видео: XviD, ~ 1560 kbps, 704x352, 25,000 fps
Аудио 1: MP3, 48,0 КГц, 2 ch, 128 kbps - RUS
Аудио 2: MP3, 48,0 КГц, 2 ch, 128 kbps - ENG
Субтитры: отсутствуют
Переведено и озвучено: студией Jaskier
Общее
Полное имя                               : F:\Jaskier\Vanity.Fair Season 1 (HDTVRip l 400p l Jaskier)\Vanity.Fair.S01E01.HDTVRip.Jaskier.avi
Формат                                   : AVI
Формат/Информация                        : Audio Video Interleave
Размер файла                             : 626 Мбайт
Продолжительность                        : 47 м. 33 с.
Общий поток                              : 1840 Кбит/сек
Программа кодирования                    : VirtualDubMod 1.5.10.3 | www.virtualdub-fr.org || (build 2550/release)
Библиотека кодирования                   : VirtualDubMod build 2550/release

Видео
Идентификатор                            : 0
Формат                                   : MPEG-4 Visual
Профиль формата                          : Advanced Simple@L5
Настройки формата                        : BVOP2
Параметр BVOP формата                    : 2
Параметр QPel формата                    : Нет
Параметр GMC формата                     : Без точки перехода
Параметр матрицы формата                 : Default (MPEG)
Идентификатор кодека                     : XVID
Идентификатор кодека/Подсказка           : XviD
Продолжительность                        : 47 м. 33 с.
Битрейт                                  : 1570 Кбит/сек
Ширина                                   : 704 пикселя
Высота                                   : 352 пикселя
Соотношение сторон                       : 2,000
Частота кадров                           : 25,000 кадров/сек
Цветовое пространство                    : YUV
Субдискретизация насыщенности            : 4:2:0
Битовая глубина                          : 8 бит
Тип развёртки                            : Прогрессивная
Метод сжатия                             : С потерями
Бит/(Пиксели*Кадры)                      : 0.253
Размер потока                            : 534 Мбайт (85%)
Библиотека кодирования                   : XviD 1.2.1 (UTC 2008-12-04)

Аудио #1
Идентификатор                            : 1
Формат                                   : MPEG Audio
Версия формата                           : Version 1
Профиль формата                          : Layer 3
Настройки формата                        : Joint stereo / MS Stereo
Идентификатор кодека                     : 55
Идентификатор кодека/Подсказка           : MP3
Продолжительность                        : 47 м. 33 с.
Вид битрейта                             : Постоянный
Битрейт                                  : 128 Кбит/сек
Каналы                                   : 2 канала
Частота                                  : 48,0 КГц
Частота кадров                           : 41,667 кадра/сек (1152 SPF)
Метод сжатия                             : С потерями
Размер потока                            : 43,5 Мбайт (7%)
Выравнивание                             : Соединение по промежуткам
Продолжительность промежутка             : 40  мс. (1,00 видеокадр)
Время предзагрузки промежутка            : 504  мс.
Библиотека кодирования                   : LAME3.100
Настройки программы                      : -m j -V 4 -q 3 -lowpass 17 -b 128

Аудио #2
Идентификатор                            : 2
Формат                                   : MPEG Audio
Версия формата                           : Version 1
Профиль формата                          : Layer 3
Настройки формата                        : Joint stereo / MS Stereo
Идентификатор кодека                     : 55
Идентификатор кодека/Подсказка           : MP3
Продолжительность                        : 47 м. 33 с.
Вид битрейта                             : Постоянный
Битрейт                                  : 128 Кбит/сек
Каналы                                   : 2 канала
Частота                                  : 48,0 КГц
Частота кадров                           : 41,667 кадра/сек (1152 SPF)
Метод сжатия                             : С потерями
Размер потока                            : 43,5 Мбайт (7%)
Выравнивание                             : Соединение по промежуткам
Продолжительность промежутка             : 40  мс. (1,00 видеокадр)
Время предзагрузки промежутка            : 504  мс.
Библиотека кодирования                   : LAME3.100
Настройки программы                      : -m j -V 4 -q 3 -lowpass 17 -b 128
Когда раздача ведётся путём добавления новых серий, при каждом добавлении создётся новый торрент. Чтобы начать докачку новой серии, пользователям необходимо сделать следующее:
(1) остановить скачивание,
(2) удалить старый торрент у себя из клиента (старые серии удалять не надо),
(3) скачать новый торрент и запустить его у себя в клиенте вместо старого, при этом указать клиенту путь в старую папку, куда и должно происходить скачивание новых серий.
Ваш клиент при этом должен произвести хеширование (проверку) старой папки (если не производит сам - помогите ему сделать это), и будет докачивать только те серии, которых у вас ещё нет. Старые серии при этом не удаляются, а продолжают раздаваться!
Eсли вы уже удалили старые серии, то предотвратить повторную закачку старых серий можно, отжав галочку в соответсвующих местах при запуске нового торрента. По возможности, желательно не удалять старые серии как можно дольше, чтобы релизёр не столько продолжал раздавать старые серии, а смог сконцентрироваться на новых.



Скачать Ярмарка.тщеславия.Vanity.Fair.Сезон.1.Серии.1-4.из.8.(Джеймс.Стронг.Джонатан.Энтвистл).[2018.Драма.HDTVRip].[MVO].(Jaskier).+.Original.torrent без регистрации
Золото ЗОЛОТАЯ РАЗДАЧА! СКАЧАННОЕ НЕ ЗАСЧИТЫВАЕТСЯ! Золото
Дата: Зарегистрирован   [ Тип: внутренний ] Как тут cкачать?
MAGNET ссылка
MAGNET ссылка


Скачать .torrent

13 KB

Статус: проверено DHT
Скачан: торрент - 55 раз, раздача полностью - 0 раз
Размер: 2,37 GB
Оценка:  - (Голосов: 0)
Поблагодарили: 0
Поделиться ссылкой на эту раздачу с друзьями:
В контактеFacebookОдноклассникиTwitterLivejournalМой МирLiveinternet
 

 
Показать сообщения:    


Вы не можете начинать темы
Вы не можете отвечать на сообщения
Вы не можете редактировать свои сообщения
Вы не можете удалять свои сообщения
Вы не можете голосовать в опросах
Вы не можете прикреплять файлы к сообщениям
Вы можете скачивать файлы