Loading...
Error

Скачать Телохранитель / Bodyguard (Сезон 01, серии 01-03 из 06) (Томас Венсан, Джон Стриклэнд) [2018, триллер, драма, криминал, WEB-DLRip] [MVO] (NewStudio) торрент без регистрации

Статистика раздачи
Размер:  2,17 GB   |    Скачан:  54 раза
Сидов:  1  [  0 KB/s  ]  
 
 
 
Автор Сообщение

leon030982

[] 

Телохранитель / Bodyguard
Год выпуска: 2018
Страна: Великобритания
Жанр: Триллер, драма, криминал
Продолжительность: ~ 00:57:00
Перевод: Профессиональный (многоголосый) *NewStudio*

Режиссёр: Томас Венсан, Джон Стриклэнд

В ролях: Стюарт Боуман, Том Брук, Клер-Луис Кордуэлл, Винсент Франклин, Николас Гливс, Кили Хоуз, Пиппа Хэйвуд, Стефани Хаям, Ричард Мэдден, Джина МакКи

Описание: Дэвид Бадд — героический, но вспыльчивый ветеран войны, который теперь работает офицером по специальной защите высокопоставленных лиц государства. Когда его приставляют защищать амбициозную и могущественную министра внутренних дел Джулию Монтег, чья политика воплощает все то, что он презирает, Бадд начинает разрываться между своим долгом службы и своими убеждениями. Он ответственный за ее безопасность, но может ли он также оказаться ее самой большой угрозой?



Качество: WEB-DLRip
Формат: AVI
Видео: XviD, 720x400, 25,000 fps, ~1549 kbps, 0.215 bit/pixel
Аудио Rus: MP3, 48 kHz, 2 ch, 128 kbps | NewStudio
Аудио Eng: MP3, 48 kHz, 2 ch, 128 kbps
Субтитры: Русские (Форсированные)
Общее
Полное имя : E:\Bodyguard (Season 1) WEBDLRip\Bodyguard.s01e01.WEBDLRip.Rus.Eng.avi
Формат : AVI
Формат/Информация : Audio Video Interleave
Размер файла : 750 Мбайт
Продолжительность : 57 м. 39 с.
Общий поток : 1819 Кбит/сек
Программа кодирования : VirtualDubMod 1.5.10.2 (build 2540/release)
Библиотека кодирования : VirtualDubMod build 2540/release

Видео
Идентификатор : 0
Формат : MPEG-4 Visual
Профиль формата : Advanced Simple@L5
Настройки формата : BVOP1
Параметр BVOP формата : 1
Параметр QPel формата : Нет
Параметр GMC формата : Без точки перехода
Параметр матрицы формата : Default (MPEG)
Идентификатор кодека : XVID
Идентификатор кодека/Подсказка : XviD
Продолжительность : 57 м. 39 с.
Битрейт : 1549 Кбит/сек
Ширина : 720 пикселей
Высота : 400 пикселей
Соотношение сторон : 16:9
Частота кадров : 25,000 кадров/сек
Цветовое пространство : YUV
Субдискретизация насыщенности : 4:2:0
Битовая глубина : 8 бит
Тип развёртки : Прогрессивная
Метод сжатия : С потерями
Бит/(Пиксели*Кадры) : 0.215
Размер потока : 639 Мбайт (85%)
Библиотека кодирования : XviD 61

Аудио #1
Идентификатор : 1
Формат : MPEG Audio
Версия формата : Version 1
Профиль формата : Layer 3
Идентификатор кодека : 55
Идентификатор кодека/Подсказка : MP3
Продолжительность : 57 м. 39 с.
Вид битрейта : Постоянный
Битрейт : 128 Кбит/сек
Каналы : 2 канала
Частота : 48,0 КГц
Частота кадров : 41,667 кадра/сек (1152 SPF)
Метод сжатия : С потерями
Размер потока : 52,8 Мбайт (7%)
Выравнивание : Соединение по промежуткам
Продолжительность промежутка : 40 мс. (1,00 видеокадр)
Время предзагрузки промежутка : 504 мс.
Библиотека кодирования : LAME3.98r
Настройки программы : -m s -V 4 -q 2 -lowpass 17 -b 128

Аудио #2
Идентификатор : 2
Формат : MPEG Audio
Версия формата : Version 1
Профиль формата : Layer 3
Настройки формата : Joint stereo / MS Stereo
Идентификатор кодека : 55
Идентификатор кодека/Подсказка : MP3
Продолжительность : 57 м. 39 с.
Вид битрейта : Постоянный
Битрейт : 128 Кбит/сек
Каналы : 2 канала
Частота : 48,0 КГц
Метод сжатия : С потерями
Размер потока : 52,8 Мбайт (7%)
Выравнивание : Соединение по промежуткам
Продолжительность промежутка : 40 мс. (1,00 видеокадр)
Время предзагрузки промежутка : 504 мс.
Внимание! Раздача ведётся путём добавления новых серий; при каждом добавлении создаётся новый торрент. Чтобы начать докачку новой серии, пользователям необходимо сделать следующее:
(1) остановить скачивание,
(2) удалить старый торрент у себя из клиента (старые серии удалять не надо),
(3) скачать новый торрент и запустить его у себя в клиенте вместо старого, при этом указать клиенту путь в старую папку куда и должно происходить скачивание новых серий.

Ваш клиент при этом должен произвести хеширование (проверку) старой папки (если не производит сам - помогите ему сделать это), и будет докачивать только те серии которых у вас ещё нет. Старые серии при этом не удаляются, а продолжают раздаваться!

Eсли вы уже удалили старые серии, то предотвратить повторную закачку старых серий можно, отжав галочку в соответствующих местах при запуске нового торрента. По возможности, желательно не удалять старые серии как можно дольше чтобы релизёр не столько продолжал раздавать старые серии, а смог сконцентрироваться на новых.



Скачать Телохранитель.Bodyguard.(Сезон.01.серии.01-03.из.06).(Томас.Венсан.Джон.Стриклэнд).[2018.триллер.драма.криминал.WEB-DLRip].[MVO].(NewStudio).torrent без регистрации
Золото ЗОЛОТАЯ РАЗДАЧА! СКАЧАННОЕ НЕ ЗАСЧИТЫВАЕТСЯ! Золото
Дата: Зарегистрирован   [ Тип: внутренний ] Как тут cкачать?
MAGNET ссылка
MAGNET ссылка


Скачать .torrent

12 KB

Статус: проверено DHT
Скачан: торрент - 54 раз, раздача полностью - 5 раз
Размер: 2,17 GB
Оценка:  - (Голосов: 0)
Поблагодарили: 0
Поделиться ссылкой на эту раздачу с друзьями:
В контактеFacebookОдноклассникиTwitterLivejournalМой МирLiveinternet
 

 
Показать сообщения:    


Вы не можете начинать темы
Вы не можете отвечать на сообщения
Вы не можете редактировать свои сообщения
Вы не можете удалять свои сообщения
Вы не можете голосовать в опросах
Вы не можете прикреплять файлы к сообщениям
Вы можете скачивать файлы