Loading...
Error

Скачать Бриллианты / Diamonds (Джон Мэллори Эшер / John Mallory Asher) [1999, мелодрама,комедия, DVDRip] МVO торрент без регистрации

 
Статистика раздачи
Размер:  745 MB   |    Скачан:  144 раза

Полного источника не было: 1 день 15 часов

 
Автор Сообщение

leon030982

[] 

Бриллианты / Diamonds
Год выпуска: 1999
Страна: США
Жанр: мелодрама,комедия
Продолжительность: 01:28:00.000 (132000 frames)
Перевод: Профессиональный (многоголосый, закадровый)
Русские субтитры: нет
Режиссер: Джон Мэллори Эшер / John Mallory Asher
В ролях: Кирк Дуглас, Дэн Эйкройд, Корбин Оллред, Лоурен Бэколл, Курт Фуллер, Дженни МакКарти
Описание: Стареющий чемпион по боксу Гарри Агенски живет забытый всеми, больше всего боясь умереть нищим в каком-нибудь доме для престарелых. Неожиданный визит сына и внука дает ему шанс покончить со своими страхами. Гарри уговаривает своих гостей отвезти его в Рино, где он много лет назад спрятал свой гонорар за поединок - 13 бриллиантов. Не особо веря историям хитрого деда, компания отправляется в путь, не предполагая, какие приключения ждут их впереди…

Качество: DVDRip
Формат: AVI
Видео кодек: XviD
Аудио кодек: МР3
Видео: 640x480 (1.33:1), 25 fps, XviD build 50 ~1045 kbps avg, 0.14 bit/pixel
Аудио: 48 kHz, MPEG Layer 3, 2 ch, ~128.00 kbps avg
General
Complete name : E:\001 МОИ РАЗДАЧИ\Бриллианты 745\brillianty_745_[torrents.ru]_by_bm11.avi
Format : AVI
Format/Info : Audio Video Interleave
File size : 745 MiB
Duration : 1h 28mn
Overall bit rate : 1 183 Kbps
Writing application : VirtualDubMod 1.5.10.2 (build 2540/release)
Writing library : VirtualDubMod build 2540/release
Video
Format : MPEG-4 Visual
Format profile : Streaming Video@L1
Format settings, BVOP : Yes
Format settings, QPel : No
Format settings, GMC : No warppoints
Format settings, Matrix : Custom
Codec ID : XVID
Codec ID/Hint : XviD
Duration : 1h 28mn
Bit rate : 1 046 Kbps
Width : 640 pixels
Height : 480 pixels
Display aspect ratio : 4/3
Frame rate : 25.000 fps
Resolution : 24 bits
Colorimetry : 4:2:0
Scan type : Progressive
Bits/(Pixel*Frame) : 0.136
Stream size : 658 MiB (88%)
Writing library : XviD 50
Audio
Format : MPEG Audio
Format version : Version 1
Format profile : Layer 3
Codec ID : 55
Codec ID/Hint : MP3
Duration : 1h 27mn
Bit rate mode : Constant
Bit rate : 128 Kbps
Channel(s) : 2 channels
Sampling rate : 48.0 KHz
Resolution : 16 bits
Stream size : 80.6 MiB (11%)
Alignment : Aligned on interleaves
Interleave, duration : 40 ms (1.00 video frame)
Interleave, preload duration : 504 ms



Скачать Бриллианты.Diamonds.(Джон.Мэллори.Эшер.John.Mallory.Asher).[1999.мелодрама.комедия.DVDRip].МVO.torrent без регистрации
Золото ЗОЛОТАЯ РАЗДАЧА! СКАЧАННОЕ НЕ ЗАСЧИТЫВАЕТСЯ! Золото
Дата: Зарегистрирован   [ Тип: внутренний ] Как тут cкачать?
MAGNET ссылка
MAGNET ссылка


Скачать .torrent

15 KB

Статус: проверено
Скачан: торрент - 144 раз, раздача полностью - 26 раз
Размер: 745 MB
Оценка:  5 (Голосов: 1)
Поблагодарили: 3
Поделиться ссылкой на эту раздачу с друзьями:
В контактеFacebookОдноклассникиTwitterLivejournalМой МирLiveinternet
 

 
Показать сообщения:    


Вы не можете начинать темы
Вы не можете отвечать на сообщения
Вы не можете редактировать свои сообщения
Вы не можете удалять свои сообщения
Вы не можете голосовать в опросах
Вы не можете прикреплять файлы к сообщениям
Вы можете скачивать файлы