Loading...
Error

Скачать Королевская милость / Restoration (Майкл Хоффман) [1995, драма, мелодрама, биография, история, DVDRip] [DVO] торрент без регистрации

 
Статистика раздачи
Размер:  1,37 GB   |    Скачан:  149 раз
Сидов:  1  [  0 KB/s  ]  
 
Автор Сообщение

Marsianka

[] 

Информация о фильме
Название: Королевская милость
Оригинальное название: Restoration
Страна: США, Великобритания
Год выхода: 1995
Жанр: драма, мелодрама, биография, история
Продолжительность: 1:57:38
Перевод: Профессиональный (двухголосый)
Режиссер: Майкл Хоффман
В ролях: Роберт Дауни мл., Сэм Нил, Дэвид Тьюлис, Полли Уокер, Мег Райан, Иэн МакКеллен, Хью Грант, Иэн МакДайармид, Мэри МакЛауд

О фильме:
Английский королевский двор времен реставрации монархии, полный бурлящих страстей и интриг. Молодой студент-медик Роберт Меривел получает место ветеринара королевских собак. Пытаясь защитить свою фаворитку Леди Селию от гнева королевы, Карл Второй предлагает Роберту вступить с ней в фиктивный брак. В награду Роберт получает титулы и поместья, но

блеск богатства меркнет рядом с внезапно вспыхнувшей страстью.
Рейтинг R - Детям до 17 лет обязательно присутствие родителей



Рейтинг R получают фильмы, в содержании которых обязательно содержится материал, предназначенный только для взрослой аудитории. Родителям рекомендуется хорошо подумать, прежде

чем посмотреть такой фильм вместе со своими детьми.
Фильм, получивший рейтинг R, скорее всего содержит сексуальные сцены, эпизоды с употреблением наркотиков, нецензурную брань, фрагменты с насилием и т.д.


Файл
Кодек: DivX
Качество: DVDRip
Видео: DivX 5 608x336 25.00fps 1528Kbps
Звук: MP3 44000Hz 128Kbps

[SAMPLE]
General
Complete name : Korolevskaya.Milost.1995.DVDRip.avi
Format : AVI
Format/Info : Audio Video Interleave
File size : 1,37 Гбайт
Duration : 1 ч. 57 м.
Overall bit rate : 1666 Кбит/сек
Writing application : VirtualDubModRus 1.5.10.2 (build 2542/release)
Writing library : VirtualDubMod build 2542/release

Видео
ID : 0
Format : MPEG-4 Visual
Format settings, BVOP : 1
Format settings, QPel : Нет
Format settings, GMC : Без точки перехода
Format settings, Matrix : Default (H.263)
Muxing mode : Сжатый битовый поток
Codec ID : DX50
Codec ID/Hint : DivX 5
Duration : 1 ч. 57 м.
Bit rate : 1528 Кбит/сек
Width : 608 пикс.
Height : 336 пикс.
Display aspect ratio : 16:9
Frame rate : 25,000 кадр/сек
Color space : YUV
Chroma subsampling : 4:2:0
Bit depth : 8 бит
Scan type : Прогрессивная
Compression mode : С потерями
Bits/(Pixel*Frame) : 0.299
Stream size : 1,26 Гбайт (92%)
Writing library : DivX 5.0.5 (UTC 2003-04-24)

Аудио
ID : 1
Format : MPEG Audio
Format version : Version 1
Format profile : Layer 3
Mode : Joint stereo
Mode extension : MS Stereo
Codec ID : 55
Codec ID/Hint : MP3
Duration : 1 ч. 57 м.
Bit rate mode : Постоянный
Bit rate : 128 Кбит/сек
Channel(s) : 2 канала(ов)
Sampling rate : 44,1 КГц
Compression mode : С потерями
Delay relative to video : 1 с. 125 мс.
Stream size : 108 Мбайт (8%)
Alignment : Разделение по промежуткам
Interleave, duration : 40 мс. (1,00 видеокадр)
Interleave, preload duration : 500 ms
Релиз от: Koller



Скачать Королевская.милость.Restoration.(Майкл.Хоффман).[1995.драма.мелодрама.биография.история.DVDRip].[DVO].torrent без регистрации
Золото ЗОЛОТАЯ РАЗДАЧА! СКАЧАННОЕ НЕ ЗАСЧИТЫВАЕТСЯ! Золото
Дата: Зарегистрирован   [ Тип: внутренний ] Как тут cкачать?
MAGNET ссылка
MAGNET ссылка


Скачать .torrent

14 KB

Статус: проверено DHT
Скачан: торрент - 149 раз, раздача полностью - 70 раз
Размер: 1,37 GB
Оценка:  - (Голосов: 0)
Поблагодарили: 4
Поделиться ссылкой на эту раздачу с друзьями:
В контактеFacebookОдноклассникиTwitterLivejournalМой МирLiveinternet
 

 
Показать сообщения:    


Вы не можете начинать темы
Вы не можете отвечать на сообщения
Вы не можете редактировать свои сообщения
Вы не можете удалять свои сообщения
Вы не можете голосовать в опросах
Вы не можете прикреплять файлы к сообщениям
Вы можете скачивать файлы